Cloud Atlas (2012) 1080p BDRip Dual Latino-Inglés [Subt. Esp] (Ciencia ficción. Drama)

Maestro Revolver

Administrador
Registro
9 Ago 2012
Mensajes
3.157
Reacciones (ptje)
55.034


Cloud-Atlas-1080p.jpg




FichaTecnica.jpg


TÍTULO ORIGINAL: Cloud Atlas
AÑO: 2012
DURACIÓN: 172 min.
PAÍS: USA
DIRECTOR: Tom Tykwer, Andy Wachowski, Lana Wachowski (AKA Larry Wachowski)
GUIÓN: Andy Wachowski, Lana Wachowski (AKA Larry Wachowski), Tom Tykwer (Novelas: David Mitchell)
REPARTO: Tom Hanks, Halle Berry, Jim Broadbent, Hugo Weaving, Jim Sturgess, Du-na Bae, Ben Whisaw, James D'Arcy, Xun Zhou, Keith David, David Gyasi, Susan Sarandon, Hugh Grant, Robert Fyfe, Martin Wuttke, Robin Morrissey, Brody Lee, Amanda Walker, Ralph Riach, Andrew Havill
PRODUCTORA: Coproducción Estados Unidos-Hong Kong-Singapur-Alemania; Cloud Atlas Productions / X-Filme Creative Pool / Anarchos Pictures / Ascension Pictures / Five Drops / Media Asia Group
GÉNERO: Ciencia ficción. Drama | Historias cruzadas. Cine épico
imdb-logo.png
: http://www.imdb.com/title/tt1371111/

PREMIOS: 2012: Globos de Oro: nominada a la mejor banda sonora original
2012: Satellite Awards: 3 nominaciones: mejor montaje, vestuario, efectos visuales




Sinopsis.jpg


Conjunto de varias historias que se desarrollan en el pasado, el presente y el futuro. Cada una de ellas está contenida en la anterior, y todas están enlazadas entre sí por pequeños detalles.




Trailer.jpg






Capturas.jpg


1.jpg


2.jpg


3.jpg


4.jpg


5.jpg


6.jpg


7.jpg


8.jpg


9.jpg


La pelicula NO tiene ninguna marca... solo colocamos el nombre de esta web en las capturas




MediaInfo.jpg


Código:
General
Format                                   : Matroska
Format version                           : Version 2
File size                                : 19.3 GiB
Duration                                 : 2h 52mn
Overall bit rate                         : 16.1 Mbps
Movie name                               : www.club-hd.com
Encoded date                             : UTC 2013-04-30 02:05:53
Writing application                      : mkvmerge v5.8.0 ('No Sleep / Pillow') built on Sep  2 2012 15:37:04
Writing library                          : libebml v1.2.3 + libmatroska v1.3.0

Video
ID                                       : 1
Format                                   : AVC
Format/Info                              : Advanced Video Codec
Format profile                           : [email protected]
Format settings, CABAC                   : Yes
Format settings, ReFrames                : 4 frames
Codec ID                                 : V_MPEG4/ISO/AVC
Duration                                 : 2h 52mn
Bit rate                                 : 13.5 Mbps
Width                                    : 1 920 pixels
Height                                   : 804 pixels
Display aspect ratio                     : 2.40:1
Frame rate mode                          : Constant
Frame rate                               : 23.976 fps
Color space                              : YUV
Chroma subsampling                       : 4:2:0
Bit depth                                : 8 bits
Scan type                                : Progressive
Bits/(Pixel*Frame)                       : 0.364
Stream size                              : 15.8 GiB (82%)
Title                                    : www.club-hd.com
Writing library                          : x264 core 125 r2208 d9d2288
Language                                 : English
Default                                  : Yes
Forced                                   : No

Audio #1
ID                                       : 2
Format                                   : AC-3
Format/Info                              : Audio Coding 3
Mode extension                           : CM (complete main)
Format settings, Endianness              : Big
Codec ID                                 : A_AC3
Duration                                 : 2h 52mn
Bit rate mode                            : Constant
Bit rate                                 : 448 Kbps
Channel(s)                               : 6 channels
Channel positions                        : Front: L C R, Side: L R, LFE
Sampling rate                            : 48.0 KHz
Bit depth                                : 16 bits
Compression mode                         : Lossy
Stream size                              : 552 MiB (3%)
Title                                    : Audio Español Latino AC3 5.1 Exclusivo Club-HD
Language                                 : Spanish
Default                                  : Yes
Forced                                   : No

Audio #2
ID                                       : 3
Format                                   : AC-3
Format/Info                              : Audio Coding 3
Mode extension                           : CM (complete main)
Format settings, Endianness              : Big
Codec ID                                 : A_AC3
Duration                                 : 2h 52mn
Bit rate mode                            : Constant
Bit rate                                 : 640 Kbps
Channel(s)                               : 6 channels
Channel positions                        : Front: L C R, Side: L R, LFE
Sampling rate                            : 48.0 KHz
Bit depth                                : 16 bits
Compression mode                         : Lossy
Stream size                              : 789 MiB (4%)
Title                                    : Audio Inglés AC3 5.1
Language                                 : English
Default                                  : No
Forced                                   : No

Audio #3
ID                                       : 4
Format                                   : DTS
Format/Info                              : Digital Theater Systems
Mode                                     : 16
Format settings, Endianness              : Big
Codec ID                                 : A_DTS
Duration                                 : 2h 52mn
Bit rate mode                            : Constant
Bit rate                                 : 1 509 Kbps
Channel(s)                               : 6 channels
Channel positions                        : Front: L C R, Side: L R, LFE
Sampling rate                            : 48.0 KHz
Bit depth                                : 16 bits
Compression mode                         : Lossy
Stream size                              : 1.82 GiB (9%)
Title                                    : Audio Inglés DTS 5.1
Language                                 : English
Default                                  : No
Forced                                   : No

Text
ID                                       : 5
Format                                   : UTF-8
Codec ID                                 : S_TEXT/UTF8
Codec ID/Info                            : UTF-8 Plain Text
Language                                 : Spanish
Default                                  : No
Forced                                   : No







Nota: El audio latino extraído del dvd (AC3 2.0) y fue convertido a 5.1 por quien les escribe (revolver21). Audio Español Latino Exclusivo de Club-HD, que lo disfruten

Imagen-5.1.jpg





Descarga.jpg



MEGA.jpg

Tenemos TODO el material de Club-HD disponible por Mega, enlaces 100% activos y online hasta la fecha

Llévate tus cuentas Mega PRO III gratis con tu membresía VIP!
Todos los posts vivos con links de Mega.
Todo el material de Club-HD desbloqueado y sin publicidad.

Obtén más información sobre nuestras Membresías VIP



1FICHIER-BANNER.png

Tenemos TODO el material de Club-HD disponible por Mega, enlaces 100% activos y online hasta la fecha

Llévate tus cuentas Mega PRO III gratis con tu membresía VIP!
Todos los posts vivos con links de Mega.
Todo el material de Club-HD desbloqueado y sin publicidad.

Obtén más información sobre nuestras Membresías VIP



UPLOADED_BANNER.png

Para ver este contenido oculto, debes dar click en el botón"Like", o cualquiera de las otras reacciones:

Me Gusta Me Gusta, Me Encanta Me Encanta, Jaja Jaja, Wow Wow, Triste Triste, Molesto Molesto


OPENLOAD.png

Para ver este contenido oculto, debes dar click en el botón"Like", o cualquiera de las otras reacciones:

Me Gusta Me Gusta, Me Encanta Me Encanta, Jaja Jaja, Wow Wow, Triste Triste, Molesto Molesto
 
Última edición por un moderador:
Muchas Gracias!!! Igual voy a esperar la version mas liviana, pero queria felicitarte por el audio latino, sos un capo!!! Saludos.
 
Pero que excelente trabajo el tuyo Master,gracias por esta versión dual y 1080p.:aplausos::aplausos::aplausos:

Gracias por ese audio exclusivo de CLUB-HD.:aplausos::aplausos:

Gracias por todo Monstruo R21!:aplausos::aplausos::LXR::LXR:
 
Wow, aportazo!!!

Mas aparte la conversión del audio... Excelente trabajo, creo que le ponen demasiado empeño a esta pagina web pero por algo sus aportes son los mejores. Muchas Gracias por todos ellos :D

Lastima que pese demasiado creo que esta si la esperare en 720p =P

Saludos :D
 
que sorpresa revolver21 en traer cloud atlas en dual y gracias por editar el audio latino e incorporarlo a la pelicula gracias gracias, a descargar y ver esta peli en latino y ver todos los detalles de la pelicula saludos :aplausos:
 
Volver