• Buenos dias amigos del club. Les queremos avisar que ya recuperamos el acceso a las webs de las Membresías VIP y del Paste. Asi que ya pueden comprar sus membresías y descargar todos los estrenos nuevamente.

Cloudy with a Chance of Meatballs 2 (2013) 1080p BDRip Dual Latino-Inglés [Subt. Esp] (Animación)

Maestro Revolver

Administrador
Registro
9 Ago 2012
Mensajes
3.157
Reacciones (ptje)
55.322


Cloudy-with-a-Chance-of-Meatballs-2-1080p.jpg




FichaTecnica.jpg


TÍTULO ORIGINAL: Cloudy with a Chance of Meatballs 2
AÑO: 2013
DURACIÓN: 95 min.
PAÍS: USA
DIRECTOR: Cody Cameron, Kris Pearn
GUIÓN: John Francis Daley, Jonathan M. Goldstein (Personajes: Judi Barrett, Ron Barrett)
REPARTO: Animation
PRODUCTORA: Sony Pictures Animation / Sony Pictures Imageworks (SPI) / Columbia Pictures
GÉNERO: Animación. Comedia. Fantástico. Aventuras | Animales. Secuela. 3-D
imdb-logo.png
: http://www.imdb.com/title/tt1985966/

Premios: 2013: Satellite Awards: Nominada a Mejor película de animación
2013: Premios Annie: 3 nominaciones




Sinopsis.jpg


"Lluvia de Hamburguesas 2" empieza exactamente donde terminaba la primera parte. El genio del inventor Flint Lockwoods acaba siendo reconocido por su ídolo Chester V, que lo invita a unirse a la The Live Corp Company, donde los inventores más brillantes del mundo crean nuevas tecnologías para el bienestar de la humanidad. La mano derecha de Chester es Barb: una orangutana dotada de un cerebro humano altamente evolucionado que le permite ser muy retorcida y manipuladora. El sueño de Flint cambia cuando descubre que la máquina de su invención, destinada a convertir el agua en alimentos, ha pasado a crear híbridos de animales-comida. Para salvar a la humanidad, Chester envía a Flint y a sus colegas a una peligrosa misión, que los llevará a enfrentarse a tacocodrilos, gambancés, quesoarañas con doble de bacon y otras criaturas igualmente extravagantes.




Trailer.jpg






Capturas.jpg


1.jpg


2.jpg


3.jpg


4.jpg


5.jpg


6.jpg


La pelicula NO tiene ninguna marca... solo colocamos el nombre de esta web en las capturas




MediaInfo.jpg


Código:
General
Format                                   : Matroska
Format version                           : Version 2
File size                                : 7.23 GiB
Duration                                 : 1h 34mn
Overall bit rate                         : 10.9 Mbps
Movie name                               : www.club-hd.com
Encoded date                             : UTC 2014-01-11 13:53:26
Writing application                      : mkvmerge v5.7.0 ('The Whirlwind') built on Jul  8 2012 20:08:51
Writing library                          : libebml v1.2.3 + libmatroska v1.3.0

Video
ID                                       : 1
Format                                   : AVC
Format/Info                              : Advanced Video Codec
Format profile                           : [email protected]
Format settings, CABAC                   : Yes
Format settings, ReFrames                : 5 frames
Muxing mode                              : Header stripping
Codec ID                                 : V_MPEG4/ISO/AVC
Duration                                 : 1h 34mn
Bit rate                                 : 8 387 Kbps
Width                                    : 1 920 pixels
Height                                   : 800 pixels
Display aspect ratio                     : 2.40:1
Frame rate mode                          : Constant
Frame rate                               : 23.976 fps
Color space                              : YUV
Chroma subsampling                       : 4:2:0
Bit depth                                : 8 bits
Scan type                                : Progressive
Bits/(Pixel*Frame)                       : 0.228
Stream size                              : 5.41 GiB (75%)
Title                                    : www.club-hd.com
Writing library                          : x264 core 140 r2377 1ca7bb9
Language                                 : English
Default                                  : Yes
Forced                                   : No

Audio #1
ID                                       : 2
Format                                   : AC-3
Format/Info                              : Audio Coding 3
Mode extension                           : CM (complete main)
Format settings, Endianness              : Big
Muxing mode                              : Header stripping
Codec ID                                 : A_AC3
Duration                                 : 1h 34mn
Bit rate mode                            : Constant
Bit rate                                 : 384 Kbps
Channel(s)                               : 6 channels
Channel positions                        : Front: L C R, Side: L R, LFE
Sampling rate                            : 44.1 KHz
Bit depth                                : 16 bits
Compression mode                         : Lossy
Stream size                              : 260 MiB (4%)
Title                                    : www.club-hd.com  >>  Latino AC3 5.1
Language                                 : Spanish
Default                                  : Yes
Forced                                   : No

Audio #2
ID                                       : 3
Format                                   : AC-3
Format/Info                              : Audio Coding 3
Mode extension                           : CM (complete main)
Format settings, Endianness              : Big
Muxing mode                              : Header stripping
Codec ID                                 : A_AC3
Duration                                 : 1h 34mn
Bit rate mode                            : Constant
Bit rate                                 : 640 Kbps
Channel(s)                               : 6 channels
Channel positions                        : Front: L C R, Side: L R, LFE
Sampling rate                            : 48.0 KHz
Bit depth                                : 16 bits
Compression mode                         : Lossy
Stream size                              : 434 MiB (6%)
Title                                    : www.club-hd.com  >>  Inglés AC3 5.1
Language                                 : English
Default                                  : No
Forced                                   : No

Audio #3
ID                                       : 4
Format                                   : DTS
Format/Info                              : Digital Theater Systems
Mode                                     : 16
Format settings, Endianness              : Big
Muxing mode                              : Header stripping
Codec ID                                 : A_DTS
Duration                                 : 1h 34mn
Bit rate mode                            : Constant
Bit rate                                 : 1 509 Kbps
Channel(s)                               : 6 channels
Channel positions                        : Front: L C R, Side: L R, LFE
Sampling rate                            : 48.0 KHz
Bit depth                                : 24 bits
Compression mode                         : Lossy
Stream size                              : 1 024 MiB (14%)
Title                                    : www.club-hd.com  >>  Inglés DTS 5.1
Language                                 : English
Default                                  : No
Forced                                   : No

Text
ID                                       : 5
Format                                   : UTF-8
Codec ID                                 : S_TEXT/UTF8
Codec ID/Info                            : UTF-8 Plain Text
Language                                 : Spanish
Default                                  : No
Forced                                   : No

Menu
00:00:00.000                             : en:00:00:00.000
00:07:12.015                             : en:00:07:12.015
00:12:51.521                             : en:00:12:51.521
00:18:50.421                             : en:00:18:50.421
00:25:58.390                             : en:00:25:58.390
00:31:57.082                             : en:00:31:57.082
00:36:53.253                             : en:00:36:53.253
00:39:28.908                             : en:00:39:28.908
00:41:07.840                             : en:00:41:07.840
00:45:28.017                             : en:00:45:28.017
00:49:48.694                             : en:00:49:48.694
00:54:41.403                             : en:00:54:41.403
01:00:39.886                             : en:01:00:39.886
01:06:47.921                             : en:01:06:47.921
01:12:54.954                             : en:01:12:54.954
01:21:25.589                             : en:01:21:25.589




Descarga.jpg



MEGA.jpg

Tenemos TODO el material de Club-HD disponible por Mega, enlaces 100% activos y online hasta la fecha

Llévate tus cuentas Mega PRO III gratis con tu membresía VIP!
Todos los posts vivos con links de Mega.
Todo el material de Club-HD desbloqueado y sin publicidad.

Obtén más información sobre nuestras Membresías VIP



UPLOADED_BANNER.png

Para ver este contenido oculto, debes dar click en el botón"Like", o cualquiera de las otras reacciones:

Me Gusta Me Gusta, Me Encanta Me Encanta, Jaja Jaja, Wow Wow, Triste Triste, Molesto Molesto
 
Última edición por un moderador:
Magnífico aporte :dplgar: Ví la primera y me gustó mucho :D Muchas gracias Revo :aplausos: Aunque no sé cual versión me levaré Pnsand0 Saludos bye
 
Volver