Cold Eyes (2013) 720p BDRip Audio Coreano [Subt. Esp] (Thriller. Acción)

Maestro Revolver

Miembro del Staff
Administrador
Registro
9 Ago 2012
Mensajes
3.157








TÍTULO ORIGINAL: Gamsijadeul (Cold Eyes)
AÑO: 2013
DURACIÓN: 118 min.
PAÍS: Corea del Sur
DIRECTOR: Ui-Seok Jo, Byung-Seo Kim
GUIÓN: Ui-Seok Jo, Kin-Yee Au, Nai-Hoi Yau
REPARTO: Hyo-Ju Han, Woo-Sung Jung, Jun-Ho Lee, Kyung-Gu Sol, Simon Yam, Jin Kyung, Byeong-Ok Kim
PRODUCTORA: Zip Cinema
GÉNERO: Thriller. Acción | Policíaco. Robos & Atracos. Crimen. Remake
: http://www.imdb.com/title/tt2969656/






La historia gira en torno a una sección especial en el departamento de policía que se especializa en rastrear y seguir un secreto a una organización criminal.
























La pelicula NO tiene ninguna marca... solo colocamos el nombre de esta web en las capturas






Código:
General
Format                                   : Matroska
Format version                           : Version 2
File size                                : 4.34 GiB
Duration                                 : 1h 59mn
Overall bit rate                         : 5 218 Kbps
Movie name                               : www.club-hd.com
Encoded date                             : UTC 2013-11-26 22:31:11
Writing application                      : mkvmerge v5.7.0 ('The Whirlwind') built on Jul  8 2012 20:08:51
Writing library                          : libebml v1.2.3 + libmatroska v1.3.0

Video
ID                                       : 1
Format                                   : AVC
Format/Info                              : Advanced Video Codec
Format profile                           : High@L4.1
Format settings, CABAC                   : Yes
Format settings, ReFrames                : 12 frames
Codec ID                                 : V_MPEG4/ISO/AVC
Duration                                 : 1h 59mn
Bit rate                                 : 4 578 Kbps
Width                                    : 1 280 pixels
Height                                   : 536 pixels
Display aspect ratio                     : 2.40:1
Frame rate mode                          : Constant
Frame rate                               : 24.000 fps
Color space                              : YUV
Chroma subsampling                       : 4:2:0
Bit depth                                : 8 bits
Scan type                                : Progressive
Bits/(Pixel*Frame)                       : 0.278
Stream size                              : 3.72 GiB (86%)
Title                                    : www.club-hd.com
Writing library                          : x264 core 135 r2345 f0c1c53
Language                                 : Korean
Default                                  : Yes
Forced                                   : No

Audio
ID                                       : 2
Format                                   : AC-3
Format/Info                              : Audio Coding 3
Mode extension                           : CM (complete main)
Format settings, Endianness              : Big
Codec ID                                 : A_AC3
Duration                                 : 1h 59mn
Bit rate mode                            : Constant
Bit rate                                 : 640 Kbps
Channel(s)                               : 6 channels
Channel positions                        : Front: L C R, Side: L R, LFE
Sampling rate                            : 48.0 KHz
Bit depth                                : 16 bits
Compression mode                         : Lossy
Stream size                              : 545 MiB (12%)
Title                                    : www.club-hd.com
Language                                 : Korean
Default                                  : Yes
Forced                                   : No

Text
ID                                       : 3
Format                                   : UTF-8
Codec ID                                 : S_TEXT/UTF8
Codec ID/Info                            : UTF-8 Plain Text
Title                                    : www.club-hd.com
Language                                 : Spanish
Default                                  : Yes
Forced                                   : No

Menu
00:00:00.000                             : en:00:00:00.000
00:07:39.250                             : en:00:07:39.250
00:14:44.208                             : en:00:14:44.208
00:21:20.750                             : en:00:21:20.750
00:28:53.208                             : en:00:28:53.208
00:35:56.625                             : en:00:35:56.625
00:42:41.542                             : en:00:42:41.542
00:49:04.375                             : en:00:49:04.375
00:56:07.333                             : en:00:56:07.333
01:02:41.750                             : en:01:02:41.750
01:09:08.125                             : en:01:09:08.125
01:17:07.708                             : en:01:17:07.708
01:24:44.292                             : en:01:24:44.292
01:31:35.625                             : en:01:31:35.625
01:36:33.000                             : en:01:36:33.000
01:41:28.667                             : en:01:41:28.667
01:48:24.375                             : en:01:48:24.375
01:55:01.333                             : en:01:55:01.333








Enlaces de Mega y Google Drive solo disponibles para Miembros VIP

Compra tu Membresía VIP y apoya a Club-HD!

ATENCIÓN! Tenemos TODO el material de Club-HD disponible por Mega y Google Drive, enlaces 100% activos y online hasta la fecha

Llévate tus cuentas Mega PRO III gratis con tu membresía VIP!
Todos los posts vivos con links de Mega y Google Drive.
Todo el material de Club-HD desbloqueado y sin publicidad.

Click Aquí para más información.



Para ver este contenido oculto, debes dar click en una de las siguientes reacciones : Like Like, Love Love, Haha Haha, Wow Wow, Sad Sad, Angry Angry

 
Última edición por un moderador:

Usuarios Que Están Viendo Este Tema (Total: 1, Miembros: 0, Invitados: 1)

Quién Leyó Este Tema (Total Miembros: 2)

Arriba