Coldplay Live (2012) 720p BDRip [AC3 5.1 | DTS] [Subt. Esp](Concierto. Documental)

Maestro Revolver

Well-known member
Miembro del Staff
Administrador
Registro
9 Ago 2012
Mensajes
3.569
Reacciones
59.471
Puntos
113

Reputation:









Película de la banda en concierto, un film donde se documenta su aclamada gira mundial Mylo Xyloto que ha sido vista por más de tres millones de personas desde que comenzó en junio de 2011. Un paraíso cinematográfico para disfrutar en pantalla grande el espectáculo visual, la intensa emoción y el increíble sonido de Coldplay, dirigida por Paul Dugdale responsable anteriormente de conciertos como Adele’s Live en el Royal Albert Hall y The Prodigy’s World’s on



Track List:

01. Mylo Xyloto
02. Hurts Like Heaven
03. In My Place
04. Major Minus
05. Yellow
06. Violet Hill
07. God Put a Smile Upon Your Face
08. Princess of China
09. Up In Flames
10. Viva La Vida
11. Charlie Brown
12. Paradise
13. Us Against the World
14. Clocks
15. Fix You
16. Every Teardrop is a Waterfall































Código:
General
Format                                   : Matroska
Format version                           : Version 2
File size                                : 7.19 GiB
Duration                                 : 1h 36mn
Overall bit rate                         : 10.6 Mbps
Movie name                               : www.club-hd.com
Encoded date                             : UTC 2013-01-12 05:32:42
Writing application                      : mkvmerge v5.7.0 ('The Whirlwind') built on Jul  8 2012 20:08:51
Writing library                          : libebml v1.2.3 + libmatroska v1.3.0

Video
ID                                       : 1
Format                                   : AVC
Format/Info                              : Advanced Video Codec
Format profile                           : High@L4.1
Format settings, CABAC                   : Yes
Format settings, ReFrames                : 12 frames
Codec ID                                 : V_MPEG4/ISO/AVC
Duration                                 : 1h 36mn
Bit rate                                 : 8 500 Kbps
Width                                    : 1 280 pixels
Height                                   : 542 pixels
Display aspect ratio                     : 2.35:1
Frame rate mode                          : Constant
Frame rate                               : 29.970 fps
Color space                              : YUV
Chroma subsampling                       : 4:2:0
Bit depth                                : 8 bits
Scan type                                : Progressive
Bits/(Pixel*Frame)                       : 0.409
Stream size                              : 5.60 GiB (78%)
Title                                    : www.club-hd.com
Writing library                          : x264 core 129 r2230 1cffe9f
Language                                 : English
Default                                  : Yes
Forced                                   : No

Audio #1
ID                                       : 2
Format                                   : AC-3
Format/Info                              : Audio Coding 3
Mode extension                           : CM (complete main)
Format settings, Endianness              : Big
Codec ID                                 : A_AC3
Duration                                 : 1h 36mn
Bit rate mode                            : Constant
Bit rate                                 : 640 Kbps
Channel(s)                               : 6 channels
Channel positions                        : Front: L C R, Side: L R, LFE
Sampling rate                            : 48.0 KHz
Bit depth                                : 16 bits
Compression mode                         : Lossy
Stream size                              : 444 MiB (6%)
Title                                    : www.club-hd.com  >> AC3 5.1
Language                                 : English
Default                                  : Yes
Forced                                   : No

Audio #2
ID                                       : 3
Format                                   : DTS
Format/Info                              : Digital Theater Systems
Mode                                     : 16
Format settings, Endianness              : Big
Codec ID                                 : A_DTS
Duration                                 : 1h 36mn
Bit rate mode                            : Constant
Bit rate                                 : 1 509 Kbps
Channel(s)                               : 6 channels
Channel positions                        : Front: L C R, Side: L R, LFE
Sampling rate                            : 48.0 KHz
Bit depth                                : 24 bits
Compression mode                         : Lossy
Stream size                              : 1.02 GiB (14%)
Title                                    : www.club-hd.com  >>  DTS 5.1
Language                                 : English
Default                                  : No
Forced                                   : No

Text
ID                                       : 4
Format                                   : UTF-8
Codec ID                                 : S_TEXT/UTF8
Codec ID/Info                            : UTF-8 Plain Text
Language                                 : Spanish
Default                                  : Yes
Forced                                   : No

Menu
00:00:00.000                             : en:00:00:00.000
00:00:37.437                             : en:00:00:37.437
00:01:31.725                             : en:00:01:31.725
00:05:48.081                             : en:00:05:48.081
00:09:43.483                             : en:00:09:43.483
00:13:53.766                             : en:00:13:53.766
00:17:22.942                             : en:00:17:22.942
00:24:15.387                             : en:00:24:15.387
00:27:29.248                             : en:00:27:29.248
00:31:16.408                             : en:00:31:16.408
00:36:09.567                             : en:00:36:09.567
00:40:03.468                             : en:00:40:03.468
00:43:32.310                             : en:00:43:32.310
00:46:51.609                             : en:00:46:51.609
00:51:48.439                             : en:00:51:48.439
00:55:33.363                             : en:00:55:33.363
01:00:46.009                             : en:01:00:46.009
01:06:54.677                             : en:01:06:54.677
01:12:52.435                             : en:01:12:52.435
01:17:15.731                             : en:01:17:15.731
01:20:30.459                             : en:01:20:30.459
01:25:39.768                             : en:01:25:39.768
01:31:38.026                             : en:01:31:38.026










Enlaces de Mega y Fireload solo disponibles para Miembros VIP

Compra tu Membresía VIP y apoya a Club-HD!

ATENCIÓN! Tenemos TODO el material de Club-HD disponible por Mega y Fireload, enlaces 100% activos y online hasta la fecha

Llévate tus cuentas Mega PRO II gratis con tu membresía VIP!
Todos los posts vivos con links de Mega y Fireload.
Todo el material de Club-HD desbloqueado y sin publicidad.

Click Aquí para más información.




Enlaces de Mega y Fireload solo disponibles para Miembros VIP

Compra tu Membresía VIP y apoya a Club-HD!

ATENCIÓN! Tenemos TODO el material de Club-HD disponible por Mega y Fireload, enlaces 100% activos y online hasta la fecha

Llévate tus cuentas Mega PRO II gratis con tu membresía VIP!
Todos los posts vivos con links de Mega y Fireload.
Todo el material de Club-HD desbloqueado y sin publicidad.

Click Aquí para más información.



Para ver este contenido oculto, debes dar click en una de las siguientes reacciones : Like Like, Love Love, Haha Haha, Wow Wow, Sad Sad, Angry Angry
 
Última edición:

elgrandario

Well-known member
Registro
29 Ago 2012
Mensajes
1.006
Reacciones
147
Puntos
63
Ubicación
Lima, Perú

Reputation:

Muy bueno, demasiado hermoso. Lo bajaré para verlo con la novia, que no tiene vida desde que entró al Internado Médico. Pero bueno, qué no hace uno o deja de hacer por perseguir, corretear a los sueños. Muchas gracias por el aporte, se ve hermoso. Miles de gracias.
 

arkkangeldark

Well-known member
Registro
27 Ago 2012
Mensajes
3.449
Reacciones
577
Puntos
113
Edad
34
Ubicación
Torreon Coahuila

Reputation:

un gran concierto de coldplay sin duda alguna, gracias por este excelente aporte revolver, ojala puedas subir algo de linkin park o system of a down
 

skill001

New member
Registro
6 Sep 2012
Mensajes
663
Reacciones
8
Puntos
0

Reputation:

Buen Concierto ... uno de OASIS estaría excelente!!!!!
 

Deivid

New member
Registro
1 Sep 2012
Mensajes
189
Reacciones
7
Puntos
0

Reputation:

Que biern BRO !!!!!!!!!! oye.... no importa el peso.. pero espero subirias en 1080p
 

ROD

New member
Registro
28 Ago 2012
Mensajes
458
Reacciones
5
Puntos
0

Reputation:

gracias revolver muy buen grupo
 

Mate78

Ladron de mi cerebro
Miembro del Staff
Súper Moderador
Registro
27 Ago 2012
Mensajes
1.237
Reacciones
924
Puntos
113

Reputation:

Realmente vale la pena este tremendo recital , gracias R21 !!!!!!P0L
 

Ezze

Well-known member
Miembro del Staff
Súper Moderador
Registro
28 Ago 2012
Mensajes
1.664
Reacciones
1.795
Puntos
113
Ubicación
En la Torre de Observación

Reputation:

bye I-M-P-R-E-S-I-O-N-A-N-T-E!!!!!! Que gran concierto!!!! Que mas decir... Muchas gracias!!!!! :bsrs:
 

Usuarios Que Están Viendo Este Tema (Total: 1, Miembros: 0, Invitados: 1)

Arriba