Compliance (2012) m-720p Audio Inglés [Subt. Esp-Ing] (Thriller. Drama)

Maestro Revolver

Well-known member
Miembro del Staff
Administrador
Registro
9 Ago 2012
Mensajes
3.569
Reacciones
59.480
Puntos
113

Reputation:


Aporte Recuperado gracias a nuestro amigo Dynky







TÍTULO ORIGINAL: Compliance
AÑO: 2012
DURACIÓN: 90 min.
PAÍS: USA
DIRECTOR: Craig Zobel
GUIÓN: Craig Zobel
REPARTO: Ann Dowd, Dreama Walker, Pat Healy, Bill Camp, Philip Ettinger, James McCaffrey
PRODUCTORA: Bad Cop Film Productions / Dogfish Pictures / Muskat Filmed Properties
GÉNERO: Thriller. Drama | Drama psicológico. Basado en hechos reales. Cine independiente USA
: http://www.imdb.com/title/tt1971352/

PREMIOS: 2012: National Board of Review (NBR): Mejor actriz secundaria (Ann Dowd)
2012: Festival de Sitges: Sección oficial largometrajes a concurso
2012: Independent Spirit Awards: Nominada a Mejor actriz secundaria (Ann Dowd)






Becky es una adolescente detenida por robar dinero de la cartera de un cliente en el restaurante de comida rápida en el que trabaja. Con este arresto, comenzará una pesadilla que trágicamente desdibuja las líneas entre la conveniencia y la prudencia, la legalidad y la razón.
























La pelicula NO tiene ninguna marca... solo colocamos el nombre de esta web en las capturas






Código:
General
Format                                   : Matroska
Format version                           : Version 2
File size                                : 2.00 GiB
Duration                                 : 1h 29mn
Overall bit rate                         : 3 195 Kbps
Movie name                               : www.club-hd.com
Encoded date                             : UTC 2012-12-31 06:28:02
Writing application                      : mkvmerge v5.7.0 ('The Whirlwind') built on Jul  8 2012 20:08:51
Writing library                          : libebml v1.2.3 + libmatroska v1.3.0

Video
ID                                       : 1
Format                                   : AVC
Format/Info                              : Advanced Video Codec
Format profile                           : High@L4.1
Format settings, CABAC                   : Yes
Format settings, ReFrames                : 9 frames
Codec ID                                 : V_MPEG4/ISO/AVC
Duration                                 : 1h 29mn
Bit rate                                 : 2 747 Kbps
Width                                    : 1 280 pixels
Height                                   : 534 pixels
Display aspect ratio                     : 2.40:1
Frame rate mode                          : Constant
Frame rate                               : 23.976 fps
Color space                              : YUV
Chroma subsampling                       : 4:2:0
Bit depth                                : 8 bits
Scan type                                : Progressive
Bits/(Pixel*Frame)                       : 0.168
Stream size                              : 1.68 GiB (84%)
Title                                    : www.club-hd.com
Writing library                          : x264 core 129 r2230 1cffe9f
Language                                 : English
Default                                  : Yes
Forced                                   : No

Audio
ID                                       : 2
Format                                   : AC-3
Format/Info                              : Audio Coding 3
Mode extension                           : CM (complete main)
Format settings, Endianness              : Big
Codec ID                                 : A_AC3
Duration                                 : 1h 29mn
Bit rate mode                            : Constant
Bit rate                                 : 448 Kbps
Channel(s)                               : 6 channels
Channel positions                        : Front: L C R, Side: L R, LFE
Sampling rate                            : 48.0 KHz
Bit depth                                : 16 bits
Compression mode                         : Lossy
Stream size                              : 288 MiB (14%)
Title                                    : www.club-hd.com
Language                                 : English
Default                                  : Yes
Forced                                   : No

Text #1
ID                                       : 3
Format                                   : UTF-8
Codec ID                                 : S_TEXT/UTF8
Codec ID/Info                            : UTF-8 Plain Text
Language                                 : Spanish
Default                                  : Yes
Forced                                   : No

Text #2
ID                                       : 4
Format                                   : UTF-8
Codec ID                                 : S_TEXT/UTF8
Codec ID/Info                            : UTF-8 Plain Text
Language                                 : English
Default                                  : No
Forced                                   : No

Menu
00:00:00.000                             : en:Chapter 1
00:08:29.175                             : en:Chapter 2
00:15:38.855                             : en:Chapter 3
00:25:01.041                             : en:Chapter 4
00:32:46.715                             : en:Chapter 5
00:38:00.487                             : en:Chapter 6
00:45:59.048                             : en:Chapter 7
00:52:18.719                             : en:Chapter 8
00:59:45.999                             : en:Chapter 9
01:07:57.031                             : en:Chapter 10
01:15:14.301                             : en:Chapter 11
01:26:35.565                             : en:Chapter 12







Código:
www.club-hd.com[/CENTER]










Enlaces de Mega y Fireload solo disponibles para Miembros VIP

Compra tu Membresía VIP y apoya a Club-HD!

ATENCIÓN! Tenemos TODO el material de Club-HD disponible por Mega y Fireload, enlaces 100% activos y online hasta la fecha

Llévate tus cuentas Mega PRO II gratis con tu membresía VIP!
Todos los posts vivos con links de Mega y Fireload.
Todo el material de Club-HD desbloqueado y sin publicidad.

Click Aquí para más información.




Enlaces de Mega y Fireload solo disponibles para Miembros VIP

Compra tu Membresía VIP y apoya a Club-HD!

ATENCIÓN! Tenemos TODO el material de Club-HD disponible por Mega y Fireload, enlaces 100% activos y online hasta la fecha

Llévate tus cuentas Mega PRO II gratis con tu membresía VIP!
Todos los posts vivos con links de Mega y Fireload.
Todo el material de Club-HD desbloqueado y sin publicidad.

Click Aquí para más información.



Para ver este contenido oculto, debes dar click en una de las siguientes reacciones : Like Like, Love Love, Haha Haha, Wow Wow, Sad Sad, Angry Angry

 
Última edición:

Usuarios Que Están Viendo Este Tema (Total: 1, Miembros: 0, Invitados: 1)

Arriba