Con Air (1997) 1080p BDRip Dual Latino-Inglés [Subt. Esp] (Acción)

Maestro Revolver

Administrador
Registro
9 Ago 2012
Mensajes
3.157
Reacciones (ptje)
54.886


Con-air-1080p.jpg




FICHA_TECNICA.png


TÍTULO ORIGINAL: Con Air
AÑO: 1997
DURACIÓN: 115 min.
PAÍS: USA
DIRECTOR: Simon West
GUIÓN: Scott Rosenberg
REPARTO: Nicolas Cage, John Cusack, John Malkovich, Steve Buscemi, Ving Rhames, Colm Meaney, Rachel Ticotin, Mykelti Williamson, Monica Potter, Angela Featherstone, José Zúñiga, Dave Chappelle, Danny Trejo, Nick Chinlund, Landry Allbright, M.C. Gainey
PRODUCTORA: Touchstone Pictures presenta una producción Jerry Bruckheimer
GÉNERO: Acción | Aviones
imdb-logo.png
: http://www.imdb.com/title/tt0118880/




SINOPSIS.png


Un grupo de presos considerados muy peligrosos son trasladados a un nuevo centro penitenciario. En el avión viaja también Cameron Poe, que acaba de conseguir la libertad condicional y cuyo único deseo es reunirse de nuevo con su esposa y su hija. Sin embargo, durante el trayecto, Poe se ve envuelto en un secuestro aéreo urdido meticulosamente por Cyrus Grissom. Mientras que Poe intenta evitar que Cyrus y sus secuaces masacren a toda la tripulacion y que el avión se estrelle contra Las Vegas, Vince Larkin, un oficial de la policia judicial, tiene que convencer a sus superiores para que no hagan explotar al avión con todos sus pasajeros.




TRAILER.png






CAPTURAS.png


1.jpg


2.jpg


3.jpg


4.jpg


5.jpg


6.jpg


La pelicula NO tiene ninguna marca... solo colocamos el nombre de esta web en las capturas




DATOS_TECNICOS.png


Código:
General
Format                                   : Matroska
Format version                           : Version 2
File size                                : 7.17 GiB
Duration                                 : 1h 55mn
Overall bit rate mode                    : Variable
Overall bit rate                         : 8 900 Kbps
Movie name                               : www.club-hd.com
Encoded date                             : UTC 2013-01-08 23:12:54
Writing application                      : mkvmerge v5.7.0 ('The Whirlwind') built on Jul  8 2012 20:08:51
Writing library                          : libebml v1.2.3 + libmatroska v1.3.0

Video
ID                                       : 1
Format                                   : AVC
Format/Info                              : Advanced Video Codec
Format profile                           : [email protected]
Format settings, CABAC                   : Yes
Format settings, ReFrames                : 2 frames
Codec ID                                 : V_MPEG4/ISO/AVC
Duration                                 : 1h 55mn
Bit rate mode                            : Variable
Bit rate                                 : 7 442 Kbps
Maximum bit rate                         : 17.5 Mbps
Width                                    : 1 920 pixels
Height                                   : 1 080 pixels
Display aspect ratio                     : 16:9
Frame rate mode                          : Constant
Frame rate                               : 23.976 fps
Color space                              : YUV
Chroma subsampling                       : 4:2:0
Bit depth                                : 8 bits
Scan type                                : Progressive
Bits/(Pixel*Frame)                       : 0.150
Stream size                              : 6.00 GiB (84%)
Title                                    : www.club-hd.com
Language                                 : English
Default                                  : Yes
Forced                                   : No
Color primaries                          : BT.709
Transfer characteristics                 : BT.709
Matrix coefficients                      : BT.709

Audio #1
ID                                       : 2
Format                                   : AC-3
Format/Info                              : Audio Coding 3
Mode extension                           : CM (complete main)
Format settings, Endianness              : Big
Codec ID                                 : A_AC3
Duration                                 : 1h 55mn
Bit rate mode                            : Constant
Bit rate                                 : 640 Kbps
Channel(s)                               : 6 channels
Channel positions                        : Front: L C R, Side: L R, LFE
Sampling rate                            : 48.0 KHz
Bit depth                                : 16 bits
Compression mode                         : Lossy
Stream size                              : 528 MiB (7%)
Title                                    : www.club-hd.com  >>  Latino
Language                                 : Spanish
Default                                  : Yes
Forced                                   : No

Audio #2
ID                                       : 3
Format                                   : AC-3
Format/Info                              : Audio Coding 3
Mode extension                           : CM (complete main)
Format settings, Endianness              : Big
Codec ID                                 : A_AC3
Duration                                 : 1h 55mn
Bit rate mode                            : Constant
Bit rate                                 : 640 Kbps
Channel(s)                               : 6 channels
Channel positions                        : Front: L C R, Side: L R, LFE
Sampling rate                            : 48.0 KHz
Bit depth                                : 16 bits
Compression mode                         : Lossy
Stream size                              : 528 MiB (7%)
Title                                    : www.club-hd.com  >>  Inglés
Language                                 : English
Default                                  : No
Forced                                   : No

Text
ID                                       : 4
Format                                   : UTF-8
Codec ID                                 : S_TEXT/UTF8
Codec ID/Info                            : UTF-8 Plain Text
Language                                 : Spanish
Default                                  : No
Forced                                   : No




Descarga.png




google-drive-vip.png


Tenemos TODO el material de Club-HD disponible por Mega, enlaces 100% activos y online hasta la fecha

Llévate tus cuentas Mega PRO III gratis con tu membresía VIP!
Todos los posts vivos con links de Mega.
Todo el material de Club-HD desbloqueado y sin publicidad.

Obtén más información sobre nuestras Membresías VIP




MEGA.jpg

Tenemos TODO el material de Club-HD disponible por Mega, enlaces 100% activos y online hasta la fecha

Llévate tus cuentas Mega PRO III gratis con tu membresía VIP!
Todos los posts vivos con links de Mega.
Todo el material de Club-HD desbloqueado y sin publicidad.

Obtén más información sobre nuestras Membresías VIP



UPLOADED_BANNER.png

Para ver este contenido oculto, debes dar click en el botón"Like", o cualquiera de las otras reacciones:

Me Gusta Me Gusta, Me Encanta Me Encanta, Jaja Jaja, Wow Wow, Triste Triste, Molesto Molesto
 
Última edición por un moderador:
clasicos de Clasicos y solo por el CLUB-HD !!!! donde mas ???? gracias R21 xD
 
Ufff..esta movie la espere mucho en HD..y mejor aun el latino..Gracias amigo Revolver, te pasaste!
 
Son unicos ,los inimitables R 21 Muchas Gracias bajando y saludos
 
Perfecto! muchas gracias por el aporte y tu trabajo... Esperando la version 720p... Saludos y Exitos!
 
Excelente película maestro, todo un Clásico con Nicolas cage.:aplausos::aplausos:

Gracias R21!
 
Volver