Concert For George (2002) m-1080i BDRip [AC3 5.1] [Subt. Esp] (Concierto)

Maestro Revolver

Administrador
Registro
9 Ago 2012
Mensajes
3.157
Reacciones (ptje)
54.932

Concert-for-George.jpg





Sinopsis.jpg


El 29 de noviembre de 2002, un año después del fallecimiento de George Harrison, Olivia Harrison y su viejo amigo Eric Clapton organizaron un espectáculo para honrar su memoria. Sus amigos más cercanos se reunieron en el Royal Albert Hall de Londres para recordar su vida de la mejor forma que sabían: tocando su música. La inolvidable velada incluyó canciones de George y algunos de sus temas favoritos de otros artistas, interpretados por Eric Clapton, Jools Holland, Jeff Lynne, Paul McCartney, Monty Python, Tom Petty, Billy Preston, Ravi y Anoushka Shankar, Ringo Starr, Dhani Harrison y muchos más. Fué David Leland (reconocido por su actuación como director en la película “Si estuvieras aquí”, la serie “Hermanos de sangre” de la HBO y el vídeo “Handle With Care” de los Traveling Wilburys) quien dirigió “Concert for George”. Ganador de un Grammy®, este documental contiene interpretaciones extraordinarias de algunos de los mejores temas del siglo XX, incluyendo “While My Guitar Gently Weeps” (con Clapton a la guitarra, McCartney al piano y Starr en la batería), “Taxman” (interpretado por Tom Petty & The Heartbreakers) y “The Inner Light” (versión de Jeff Lynne y Anoushka Shankar). Lynne, viejo amigo y colaborador de Harrison, produjo los elementos de audio del concierto, y Clapton supervisó todo el espectáculo como director musical.



Track List:

1.Your Eyes - Anoushka Shankar
2.The Inner Light - Jeff Lynne & Anoushka Shankar
3.Arpan - Conducted by Anoushka Shankar
4.Sit On My Face – Monty Python
5.The Lumberjack Song – Monty Python with Tom Hanks
6.I Want To Tell You - Jeff Lynne
7.If I Needed Someone - Eric Clapton
8.Old Brown Shoe - Gary Brooker
9.Give Me Love - Jeff Lynne
10.Beware Of Darkness - Eric Clapton
11.Here Comes The Sun - Joe Brown
12.That’s The Way It Goes - Joe Brown
13.Horse To The Water – Sam Brown
14.Taxman - Tom Petty and the Heartbreakers
15.I Need You - Tom Petty and the Heartbreakers
16.Handle With Care - Tom Petty and the Heartbreakers with Jeff Lynne & Dhani Harrison
17.Isn’t It A Pity - Billy Preston
18.Photograph - Ringo Starr
19.Honey Don’t - Ringo Starr
20.For You Blue - Paul McCartney
21.Something - Paul McCartney & Eric Clapton
22.All Things Must Pass - Paul McCartney
23.While My Guitar Gently Weeps - Paul McCartney & Eric Clapton
24.My Sweet Lord - Billy Preston
25.Wah Wah - Eric Clapton & Band
26.I’ll See You In My Dreams - Joe Brown




Trailer.jpg






Capturas.jpg


1.jpg


2.jpg


3.jpg


4.jpg


5.jpg


6.jpg





MediaInfo.jpg


Código:
General
Format                                   : Matroska
Format version                           : Version 2
File size                                : 5.22 GiB
Duration                                 : 2h 26mn
Overall bit rate                         : 5 098 Kbps
Movie name                               : www.club-hd.com
Encoded date                             : UTC 2013-08-21 04:00:08
Writing application                      : mkvmerge v5.7.0 ('The Whirlwind') built on Jul  8 2012 20:08:51
Writing library                          : libebml v1.2.3 + libmatroska v1.3.0

Video
ID                                       : 1
Format                                   : AVC
Format/Info                              : Advanced Video Codec
Format profile                           : [email protected]
Format settings, CABAC                   : Yes
Format settings, ReFrames                : 4 frames
Codec ID                                 : V_MPEG4/ISO/AVC
Duration                                 : 2h 26mn
Bit rate                                 : 4 500 Kbps
Width                                    : 1 910 pixels
Height                                   : 1 076 pixels
Display aspect ratio                     : 16:9
Frame rate mode                          : Constant
Frame rate                               : 29.970 fps
Color space                              : YUV
Chroma subsampling                       : 4:2:0
Bit depth                                : 8 bits
Scan type                                : Progressive
Bits/(Pixel*Frame)                       : 0.073
Stream size                              : 4.46 GiB (85%)
Title                                    : www.club-hd.com
Writing library                          : x264 core 112
Language                                 : English
Default                                  : Yes
Forced                                   : No
Color primaries                          : BT.709
Transfer characteristics                 : BT.709
Matrix coefficients                      : BT.709

Audio
ID                                       : 2
Format                                   : AC-3
Format/Info                              : Audio Coding 3
Mode extension                           : CM (complete main)
Format settings, Endianness              : Big
Codec ID                                 : A_AC3
Duration                                 : 2h 26mn
Bit rate mode                            : Constant
Bit rate                                 : 640 Kbps
Channel(s)                               : 6 channels
Channel positions                        : Front: L C R, Side: L R, LFE
Sampling rate                            : 48.0 KHz
Bit depth                                : 16 bits
Compression mode                         : Lossy
Stream size                              : 671 MiB (13%)
Title                                    : www.club-hd.com
Language                                 : English
Default                                  : Yes
Forced                                   : No

Menu
00:00:00.000                             : en:Video Start
00:01:43.670                             : en:1. Eric Clapton Intro
00:04:05.311                             : en:2. Ravi Shankar Intro
00:06:22.415                             : en:3. Your Eyes - Anoushka Shankar
00:14:55.127                             : en:4. The Inner Light - Jeff Lynne & Anoushka Shankar
00:18:18.697                             : en:5. Arpan - Conducted by Anoushka Shankar
00:42:12.029                             : en:6. Sit On My Face - Monty Python
00:43:40.784                             : en:7. The Lumberjack Song - Monty Python with Tom 
00:48:36.780                             : en:8. I Want To Tell You - Jeff Lynne
00:51:57.881                             : en:9. If I Needed Someone - Eric Clapton
00:54:29.966                             : en:10. Old Brown Shoe - Gary Brooker
00:58:20.730                             : en:11. Give Me Love - Jeff Lynne
01:01:47.837                             : en:12. Beware Of Darkness - Eric Clapton
01:05:44.106                             : en:13. Here Comes The Sun - Joe Brown
01:09:20.890                             : en:14. That's The Way It Goes - Joe Brown
01:13:03.178                             : en:15. Horse To The Water - Sam Brown
01:18:50.358                             : en:16. Taxman - Tom Petty and the Heartbreakers
01:22:42.257                             : en:17. I Need You - Tom Petty and the Heartbreakers
01:26:01.389                             : en:18. Handle With Care - Tom Petty with Jeff Lynne & Dhani Harrison
01:29:51.519                             : en:19. Isn't It A Pity - Billy Preston
01:36:17.772                             : en:20. Photograph - Ringo Starr
01:41:25.879                             : en:21. Honey Don't - Ringo Starr
01:44:25.492                             : en:22. For You Blue - Paul McCartney
01:47:50.330                             : en:23. Something - Paul McCartney & Eric Clapton
01:52:46.459                             : en:24. All Things Must Pass - Paul McCartney
01:56:40.693                             : en:25. While My Guitar Gently Weeps - Paul McCartney & Eric Clapton
02:02:51.597                             : en:26. My Sweet Lord - Billy Preston
02:08:12.384                             : en:27. Wah Wah - Eric Clapton & Band
02:15:09.868                             : en:28. I'll See You In My Dreams - Joe Brown
02:20:11.669                             : en:Credits




Descarga.jpg



MEGA.jpg

Tenemos TODO el material de Club-HD disponible por Mega, enlaces 100% activos y online hasta la fecha

Llévate tus cuentas Mega PRO III gratis con tu membresía VIP!
Todos los posts vivos con links de Mega.
Todo el material de Club-HD desbloqueado y sin publicidad.

Obtén más información sobre nuestras Membresías VIP


UPLOADED_BANNER.png

Para ver este contenido oculto, debes dar click en el botón"Like", o cualquiera de las otras reacciones:

Me Gusta Me Gusta, Me Encanta Me Encanta, Jaja Jaja, Wow Wow, Triste Triste, Molesto Molesto



 
Última edición por un moderador:
Volver