Coyote Ugly (2000) (Theatrical) 1080p BDRip Dual Latino-Inglés [Subt. Esp] (Drama. Romance)

Maestro Revolver

Administrador
Registro
9 Ago 2012
Mensajes
3.157
Reacciones (ptje)
55.041


CoyoteUgly1080p.jpg




FichaTecnica.jpg


TÍTULO ORIGINAL: Coyote Ugly
AÑO: 2000
DURACIÓN: 94 min.
PAÍS: USA
DIRECTOR: David McNally
GUIÓN: Gina Wendkos
REPARTO: Piper Perabo, Adam Garcia, John Goodman, Maria Bello, Melanie Lynskey, Tyra Banks, Bridget Moynahan, Johnny Knoxville, Bud Cort, LeAnn Rimes, Michael Weston, Jack McGee
PRODUCTORA: Touchstone Pictures / Jerry Bruckheimer Films
GÉNERO: Drama. Romance | Drama romántico. Música
imdb-logo.png
: http://www.imdb.com/title/tt0200550/




Sinopsis.jpg


A sus 21 años, Violet Sanford (Piper Perabo) tiene una sedosa voz de terciopelo y llega a Nueva York con la esperanza de convertirse en letrista. Pero sus sueños quedan aparcados momentáneamente por el éxito que alcanza trabajando como camarera en el bar Coyote. El bar Coyote es un nuevo club nocturno y el punto más caliente de la ciudad. Cuenta con un ambicioso plantel de chicas, todas jóvenes y muy atractivas. Lil (Maria Bello) es el cerebro y la estricta propietaria del local, que reina con autoridad sobre sus chicas. Entre ellas están la coqueta Cammie, la cabezota y variable Rachel y Zoe, la que más propinas consigue. Las "chicas Coyote", como las llaman cariñosamente, provocan a los clientes y a los medios de comunicación con sus atrevidos atuendos, y convierten el bar Coyote en el punto de atracción de los chicos que merodean por la zona.




Trailer.jpg






Capturas.jpg


1.jpg


2.jpg


3.jpg


4.jpg


5.jpg


6.jpg


La pelicula NO tiene ninguna marca... solo colocamos el nombre de esta web en las capturas




MediaInfo.jpg


Código:
General
Format                                   : Matroska
Format version                           : Version 2
File size                                : 7.44 GiB
Duration                                 : 1h 40mn
Overall bit rate                         : 10.6 Mbps
Movie name                               : www.club-hd.com
Encoded date                             : UTC 2013-05-20 22:10:06
Writing application                      : mkvmerge v5.7.0 ('The Whirlwind') built on Jul  8 2012 20:08:51
Writing library                          : libebml v1.2.3 + libmatroska v1.3.0

Video
ID                                       : 1
Format                                   : AVC
Format/Info                              : Advanced Video Codec
Format profile                           : [email protected]
Format settings, CABAC                   : Yes
Format settings, ReFrames                : 3 frames
Codec ID                                 : V_MPEG4/ISO/AVC
Duration                                 : 1h 40mn
Bit rate                                 : 9 522 Kbps
Nominal bit rate                         : 10 000 Kbps
Width                                    : 1 920 pixels
Height                                   : 816 pixels
Display aspect ratio                     : 2.35:1
Original display aspect ratio            : 2.35:1
Frame rate mode                          : Constant
Frame rate                               : 23.976 fps
Color space                              : YUV
Chroma subsampling                       : 4:2:0
Bit depth                                : 8 bits
Scan type                                : Progressive
Bits/(Pixel*Frame)                       : 0.253
Stream size                              : 6.70 GiB (90%)
Title                                    : www.club-hd.com
Writing library                          : x264 core 120
Language                                 : English
Default                                  : Yes
Forced                                   : No
Color primaries                          : BT.709
Transfer characteristics                 : BT.709
Matrix coefficients                      : BT.709

Audio #1
ID                                       : 2
Format                                   : AC-3
Format/Info                              : Audio Coding 3
Format profile                           : Dolby Digital
Mode extension                           : CM (complete main)
Format settings, Endianness              : Big
Codec ID                                 : A_AC3
Duration                                 : 1h 40mn
Bit rate mode                            : Constant
Bit rate                                 : 192 Kbps
Channel(s)                               : 2 channels
Channel positions                        : Front: L R
Sampling rate                            : 48.0 KHz
Bit depth                                : 16 bits
Compression mode                         : Lossy
Stream size                              : 138 MiB (2%)
Title                                    : www.club-hd.com  >>  Latino
Language                                 : Spanish
Default                                  : Yes
Forced                                   : No

Audio #2
ID                                       : 3
Format                                   : AC-3
Format/Info                              : Audio Coding 3
Mode extension                           : CM (complete main)
Format settings, Endianness              : Big
Codec ID                                 : A_AC3
Duration                                 : 1h 40mn
Bit rate mode                            : Constant
Bit rate                                 : 640 Kbps
Channel(s)                               : 6 channels
Channel positions                        : Front: L C R, Side: L R, LFE
Sampling rate                            : 48.0 KHz
Bit depth                                : 16 bits
Compression mode                         : Lossy
Stream size                              : 461 MiB (6%)
Title                                    : www.club-hd.com  >>  Inglés
Language                                 : English
Default                                  : No
Forced                                   : No

Text
ID                                       : 4
Format                                   : UTF-8
Codec ID                                 : S_TEXT/UTF8
Codec ID/Info                            : UTF-8 Plain Text
Language                                 : Spanish
Default                                  : No
Forced                                   : No




Descarga.jpg



MEGA.jpg

Tenemos TODO el material de Club-HD disponible por Mega, enlaces 100% activos y online hasta la fecha

Llévate tus cuentas Mega PRO III gratis con tu membresía VIP!
Todos los posts vivos con links de Mega.
Todo el material de Club-HD desbloqueado y sin publicidad.

Obtén más información sobre nuestras Membresías VIP


UPLOADED_BANNER.png

Para ver este contenido oculto, debes dar click en el botón"Like", o cualquiera de las otras reacciones:

Me Gusta Me Gusta, Me Encanta Me Encanta, Jaja Jaja, Wow Wow, Triste Triste, Molesto Molesto

 
Última edición por un moderador:
Re: Coyote Ugly (2000) 1080p BDRip Dual Latino-Inglés [Subt. Esp] (Drama. Romance)

Muchas gracias Revolver :dplgar: Agregada a la lista, creo que su peso lo vale xD Saludos bye
 
Re: Coyote Ugly (2000) 1080p BDRip Dual Latino-Inglés [Subt. Esp] (Drama. Romance)

gracias
 
Re: Coyote Ugly (2000) 1080p BDRip Dual Latino-Inglés [Subt. Esp] (Drama. Romance)

Algo un poco meloso y salvaje a la ves muchas gracias R21 esta también se va a la cola de descargas :D
 
Re: Coyote Ugly (2000) 1080p BDRip Dual Latino-Inglés [Subt. Esp] (Drama. Romance)

gracias master hay que tenerla
 
Re: Coyote Ugly (2000) 1080p BDRip Dual Latino-Inglés [Subt. Esp] (Drama. Romance)

Un super clasico
Excelente Revolver mil gracias
Un enorme aplauso para ti.
Saludos.
 
Re: Coyote Ugly (2000) 1080p BDRip Dual Latino-Inglés [Subt. Esp] (Drama. Romance)

Buena esa hermano! bajando :) gracias!
 
Re: Coyote Ugly (2000) 1080p BDRip Dual Latino-Inglés [Subt. Esp] (Drama. Romance)

Muchas gracias Revol, 7.4Gb, hay que ver que tal las chicas coyote :dplgar:
 
Re: Coyote Ugly (2000) 1080p BDRip Dual Latino-Inglés [Subt. Esp] (Drama. Romance)

7 GB mmm la subirán el 720

:aplausos:
buena PELA
 
Re: Coyote Ugly (2000) 1080p BDRip Dual Latino-Inglés [Subt. Esp] (Drama. Romance)

Muchas gracias por este aporte, realmente yo no la conozco.:aplausos::aplausos::aplausos:

Gracias mister!!!
 
Re: Coyote Ugly (2000) 1080p BDRip Dual Latino-Inglés [Subt. Esp] (Drama. Romance)

gracias!!!
 
Re: Coyote Ugly (2000) 1080p BDRip Dual Latino-Inglés [Subt. Esp] (Drama. Romance)

gracias
 
Re: Coyote Ugly (2000) 1080p BDRip Dual Latino-Inglés [Subt. Esp] (Drama. Romance)

Se ve interesante, me la llevo, muchas gracias R21...:aplausos:
 
Re: Coyote Ugly (2000) 1080p BDRip Dual Latino-Inglés [Subt. Esp] (Drama. Romance)

Muchisimas gracias, t lo agradesco mucho por este aporte, eres un genio !!!!!!!:dplgar::aplausos:
 
Re: Coyote Ugly (2000) 1080p BDRip Dual Latino-Inglés [Subt. Esp] (Drama. Romance)

gracias
 
Re: Coyote Ugly (2000) 1080p BDRip Dual Latino-Inglés [Subt. Esp] (Drama. Romance)

Excelente pelicula. Muchas gracias
 
Re: Coyote Ugly (2000) 1080p BDRip Dual Latino-Inglés [Subt. Esp] (Drama. Romance)

Desc_g_ me llevo esta peli en esta excelente calidad!!
 
Re: Coyote Ugly (2000) 1080p BDRip Dual Latino-Inglés [Subt. Esp] (Drama. Romance)

Desc_g_
 
Re: Coyote Ugly (2000) 1080p BDRip Dual Latino-Inglés [Subt. Esp] (Drama. Romance)

gracias
 
Re: Coyote Ugly (2000) 1080p BDRip Dual Latino-Inglés [Subt. Esp] (Drama. Romance)

Bajando Gracias
 
Volver