Crooked Arrows (2012) m-720p BDRip Inglés [Subt. Esp-Ing] (Drama. Deporte)

Max

Admin
Miembro del Staff
Administrador
Registro
8 Ago 2012
Mensajes
5.593
Reacciones
23.794
Puntos
113
Ubicación
Disco C

Reputation:


Aporte Recuperado gracias a nuestro amigo Dynky




TÍTULO ORIGINAL: Crooked Arrows
AÑO: 2012
DURACIÓN: 105 min.
PAÍS: Estados Unidos
DIRECTOR: Steve Rash
GUIÓN: Todd Baird
REPARTO: Brandon Routh, Gil Birmingham, Crystal Allen, Chelsea Ricketts, Lee M. Cunningham, Dan Stoloff
PRODUCTORA: Sports Studio
GÉNERO: Drama | Deporte

http://www.imdb.com/title/tt1954352/






Historia centrada en un equipo norteamericano de lacrosse (deporte parecido al hockey hierba pero con raquetas) compuesto por nativos (precisamente el lacrosse es un deporte con orígenes en las tribus indias nativas).





























Código:
General
Complete name                    : Crooked Arrows (2012) m-720p BDRip Inglés [Subt. Esp-Ing].mkv
Format                           : Matroska
Format version                   : Version 2
File size                        : 2.30 GiB
Duration                         : 1h 45mn
Overall bit rate                 : 3 139 Kbps
Movie name                       : www.club-hd.com --> Crooked Arrows (2012) m-720p BDRip Inglés [Subt. Esp-Ing]
Encoded date                     : UTC 2012-10-27 01:48:28
Writing application              : mkvmerge v5.8.0 ('No Sleep / Pillow') built on Sep  2 2012 15:37:04
Writing library                  : libebml v1.2.3 + libmatroska v1.3.0

Video
ID                               : 1
Format                           : AVC
Format/Info                      : Advanced Video Codec
Format profile                   : High@L4.1
Format settings, CABAC           : Yes
Format settings, ReFrames        : 8 frames
Codec ID                         : V_MPEG4/ISO/AVC
Duration                         : 1h 45mn
Bit rate                         : 2 690 Kbps
Width                            : 1 280 pixels
Height                           : 720 pixels
Display aspect ratio             : 16:9
Frame rate                       : 23.976 fps
Color space                      : YUV
Chroma subsampling               : 4:2:0
Bit depth                        : 8 bits
Scan type                        : Progressive
Bits/(Pixel*Frame)               : 0.122
Stream size                      : 1.93 GiB (84%)
Title                            : www.club-hd.com --> Crooked Arrows (2012) m-720p BDRip Inglés [Subt. Esp-Ing]
Writing library                  : x264 core 128 r2216 198a7ea
Encoding settings                : cabac=1 / ref=9 / deblock=1:-3:-3 / analyse=0x3:0x113 / me=umh / subme=10 / psy=1 / psy_rd=1.00:0.00 / mixed_ref=1 / me_range=16 / chroma_me=1 / trellis=2 / 8x8dct=1 / cqm=0 / deadzone=21,11 / fast_pskip=1 / chroma_qp_offset=-2 / threads=12 / lookahead_threads=2 / sliced_threads=0 / nr=0 / decimate=1 / interlaced=0 / bluray_compat=0 / constrained_intra=0 / bframes=3 / b_pyramid=1 / b_adapt=1 / b_bias=0 / direct=1 / weightb=1 / open_gop=0 / weightp=2 / keyint=250 / keyint_min=23 / scenecut=40 / intra_refresh=0 / rc=2pass / mbtree=0 / bitrate=2690 / ratetol=1.0 / qcomp=0.60 / qpmin=0 / qpmax=69 / qpstep=4 / cplxblur=20.0 / qblur=0.5 / ip_ratio=1.40 / pb_ratio=1.30 / aq=1:0.80
Language                         : English
Default                          : Yes
Forced                           : No

Audio
ID                               : 2
Format                           : AC-3
Format/Info                      : Audio Coding 3
Mode extension                   : CM (complete main)
Codec ID                         : A_AC3
Duration                         : 1h 45mn
Bit rate mode                    : Constant
Bit rate                         : 448 Kbps
Channel(s)                       : 6 channels
Channel positions                : Front: L C R, Side: L R, LFE
Sampling rate                    : 48.0 KHz
Bit depth                        : 16 bits
Compression mode                 : Lossy
Stream size                      : 337 MiB (14%)
Title                            : Crooked Arrows (2012) - Inglés AC3 5.1
Language                         : English
Default                          : Yes
Forced                           : No

Text #1
ID                               : 3
Format                           : UTF-8
Codec ID                         : S_TEXT/UTF8
Codec ID/Info                    : UTF-8 Plain Text
Title                            : Subtítulos Español
Language                         : Spanish
Default                          : Yes
Forced                           : No

Text #2
ID                               : 4
Format                           : UTF-8
Codec ID                         : S_TEXT/UTF8
Codec ID/Info                    : UTF-8 Plain Text
Title                            : Subtítulos Inglés
Language                         : English
Default                          : No
Forced                           : No

Menu
00:00:00.000                     : en:Chapter 1
00:04:01.616                     : en:Chapter 2
00:07:03.423                     : en:Chapter 3
00:10:35.468                     : en:Chapter 4
00:14:00.840                     : en:Chapter 5
00:16:32.617                     : en:Chapter 6
00:19:15.237                     : en:Chapter 7
00:20:30.062                     : en:Chapter 8
00:21:56.523                     : en:Chapter 9
00:25:04.628                     : en:Chapter 10
00:26:56.615                     : en:Chapter 11
00:30:17.274                     : en:Chapter 12
00:33:35.889                     : en:Chapter 13
00:35:37.510                     : en:Chapter 14
00:39:26.364                     : en:Chapter 15
00:43:05.082                     : en:Chapter 16
00:45:51.749                     : en:Chapter 17
00:49:21.375                     : en:Chapter 18
00:53:54.648                     : en:Chapter 19
00:56:27.092                     : en:Chapter 20
01:01:13.419                     : en:Chapter 21
01:02:28.202                     : en:Chapter 22
01:04:57.518                     : en:Chapter 23
01:07:30.421                     : en:Chapter 24
01:10:54.542                     : en:Chapter 25
01:17:20.636                     : en:Chapter 26
01:20:21.066                     : en:Chapter 27
01:23:57.324                     : en:Chapter 28
01:27:53.101                     : en:Chapter 29
01:32:07.480                     : en:Chapter 30
01:36:32.161                     : en:Chapter 31
01:39:42.810                     : en:Chapter 32







Código:
www.club-hd.com[/CENTER]







Todos los links son Intercambiables!





Enlaces de Mega y Fireload solo disponibles para Miembros VIP

Compra tu Membresía VIP y apoya a Club-HD!

ATENCIÓN! Tenemos TODO el material de Club-HD disponible por Mega y Fireload, enlaces 100% activos y online hasta la fecha

Llévate tus cuentas Mega PRO II gratis con tu membresía VIP!
Todos los posts vivos con links de Mega y Fireload.
Todo el material de Club-HD desbloqueado y sin publicidad.

Click Aquí para más información.





Enlaces de Mega y Fireload solo disponibles para Miembros VIP

Compra tu Membresía VIP y apoya a Club-HD!

ATENCIÓN! Tenemos TODO el material de Club-HD disponible por Mega y Fireload, enlaces 100% activos y online hasta la fecha

Llévate tus cuentas Mega PRO II gratis con tu membresía VIP!
Todos los posts vivos con links de Mega y Fireload.
Todo el material de Club-HD desbloqueado y sin publicidad.

Click Aquí para más información.


Para ver este contenido oculto, debes dar click en una de las siguientes reacciones : Like Like, Love Love, Haha Haha, Wow Wow, Sad Sad, Angry Angry
 
Última edición por un moderador:

Mate78

Ladron de mi cerebro
Miembro del Staff
Súper Moderador
Registro
27 Ago 2012
Mensajes
1.236
Reacciones
920
Puntos
113

Reputation:

voy a tener que buscar un nuevo apodo para ti , tremendo DON MAX !!!! graciasssgr-in
 

Usuarios Que Están Viendo Este Tema (Total: 1, Miembros: 0, Invitados: 1)

Arriba