Cyborg (1989) 1080p BDRip Dual Latino-Inglés [Subt. Esp] (Ciencia ficción. Acción)

Maestro Revolver

Miembro del Staff
Administrador
Registro
9 Ago 2012
Mensajes
3.157








TÍTULO ORIGINAL: Cyborg
AÑO: 1989
DURACIÓN: 86 min.
PAÍS: USA
DIRECTOR: Albert Pyun
GUIÓN: Kitty Chalmers
REPARTO: Jean-Claude Van Damme, Deborah Richter, Vincent Klyn, Alex Daniels, Dayle Haddon, Blaise Loong, Ralf Moeller, Haley Peterson
PRODUCTORA: Cannon Enteretainment / Golan-Globus
GÉNERO: Ciencia ficción. Acción | Futuro postapocalíptico. Robots. Cyberpunk
: http://www.imdb.com/title/tt0097138/






Siglo XXI, en un futuro apocalíptico... América está sometida a una anarquía social donde el caos reina a sus anchas, y sobre la que se cierne el peligro de una devastadora plaga que puede acabar con la raza humana. Únicamente, la hermosa Pearl (Dayle Haddon), mitad humana mitad robot, posee el conocimiento necesario para desarrollar una vacuna que pueda salvar el mundo. Pero Pearl es capturada por un grupo de piratas del futuro que pretenden apoderarse del antídoto y así dominar el mundo. Ahora, sólo el héroe Gibson Rtickenbarker (Jean-Claude Van Damme) con su increíble habilidad para la lucha y su auténtico dominio del sable, podrá rescatarla y salvar lo que queda de civilización..
























La pelicula NO tiene ninguna marca... solo colocamos el nombre de esta web en las capturas






Código:
General
Format                                   : Matroska
Format version                           : Version 2
File size                                : 11.1 GiB
Duration                                 : 1h 26mn
Overall bit rate mode                    : Variable
Overall bit rate                         : 18.3 Mbps
Movie name                               : www.club-hd.com
Encoded date                             : UTC 2013-09-19 14:12:35
Writing application                      : mkvmerge v5.7.0 ('The Whirlwind') built on Jul  8 2012 20:08:51
Writing library                          : libebml v1.2.3 + libmatroska v1.3.0

Video
ID                                       : 1
Format                                   : AVC
Format/Info                              : Advanced Video Codec
Format profile                           : High@L4.1
Format settings, CABAC                   : Yes
Format settings, ReFrames                : 4 frames
Codec ID                                 : V_MPEG4/ISO/AVC
Duration                                 : 1h 26mn
Nominal bit rate                         : 16.5 Mbps
Width                                    : 1 920 pixels
Height                                   : 1 038 pixels
Display aspect ratio                     : 1.85:1
Frame rate mode                          : Constant
Frame rate                               : 23.976 fps
Color space                              : YUV
Chroma subsampling                       : 4:2:0
Bit depth                                : 8 bits
Scan type                                : Progressive
Bits/(Pixel*Frame)                       : 0.345
Title                                    : www.club-hd.com
Language                                 : English
Default                                  : Yes
Forced                                   : No

Audio #1
ID                                       : 2
Format                                   : AC-3
Format/Info                              : Audio Coding 3
Mode extension                           : CM (complete main)
Format settings, Endianness              : Big
Codec ID                                 : A_AC3
Duration                                 : 1h 26mn
Bit rate mode                            : Constant
Bit rate                                 : 256 Kbps
Channel(s)                               : 2 channels
Channel positions                        : Front: L R
Sampling rate                            : 48.0 KHz
Bit depth                                : 16 bits
Compression mode                         : Lossy
Stream size                              : 158 MiB (1%)
Title                                    : Español Latino AC3 2.0 @ 256 kbps
Language                                 : Spanish
Default                                  : Yes
Forced                                   : No

Audio #2
ID                                       : 3
Format                                   : AC-3
Format/Info                              : Audio Coding 3
Mode extension                           : CM (complete main)
Format settings, Endianness              : Big
Codec ID                                 : A_AC3
Duration                                 : 1h 26mn
Bit rate mode                            : Constant
Bit rate                                 : 640 Kbps
Channel(s)                               : 2 channels
Channel positions                        : Front: L R
Sampling rate                            : 48.0 KHz
Bit depth                                : 16 bits
Compression mode                         : Lossy
Stream size                              : 396 MiB (3%)
Title                                    : Inglés AC3 2.0 @ 640 kbps
Language                                 : English
Default                                  : No
Forced                                   : No

Audio #3
ID                                       : 4
Format                                   : DTS
Format/Info                              : Digital Theater Systems
Format profile                           : MA / Core
Mode                                     : 16
Format settings, Endianness              : Big
Codec ID                                 : A_DTS
Duration                                 : 1h 26mn
Bit rate mode                            : Variable
Bit rate                                 : Unknown / 768 Kbps
Channel(s)                               : 2 channels
Channel positions                        : Front: L R
Sampling rate                            : 48.0 KHz
Bit depth                                : 24 bits
Compression mode                         : Lossless / Lossy
Title                                    : Inglés DTS-HD Master Audio 2.0 @ 939 kbps
Language                                 : English
Default                                  : No
Forced                                   : No

Text
ID                                       : 5
Format                                   : UTF-8
Codec ID                                 : S_TEXT/UTF8
Codec ID/Info                            : UTF-8 Plain Text
Language                                 : Spanish
Default                                  : No
Forced                                   : No

Menu
00:00:00.000                             : en:00:00:00.000
00:00:25.192                             : en:00:00:25.192
00:04:14.087                             : en:00:04:14.087
00:05:24.699                             : en:00:05:24.699
00:10:31.881                             : en:00:10:31.881
00:16:20.479                             : en:00:16:20.479
00:23:38.167                             : en:00:23:38.167
00:28:52.814                             : en:00:28:52.814
00:32:34.077                             : en:00:32:34.077
00:36:01.076                             : en:00:36:01.076
00:40:01.482                             : en:00:40:01.482
00:46:34.917                             : en:00:46:34.917
00:49:52.364                             : en:00:49:52.364
00:55:11.725                             : en:00:55:11.725
00:56:38.103                             : en:00:56:38.103
00:59:36.615                             : en:00:59:36.615
01:05:58.037                             : en:01:05:58.037
01:09:25.036                             : en:01:09:25.036
01:12:41.566                             : en:01:12:41.566
01:19:29.723                             : en:01:19:29.723
01:22:11.802                             : en:01:22:11.802








Enlaces de Mega y Google Drive solo disponibles para Miembros VIP

Compra tu Membresía VIP y apoya a Club-HD!

ATENCIÓN! Tenemos TODO el material de Club-HD disponible por Mega y Google Drive, enlaces 100% activos y online hasta la fecha

Llévate tus cuentas Mega PRO III gratis con tu membresía VIP!
Todos los posts vivos con links de Mega y Google Drive.
Todo el material de Club-HD desbloqueado y sin publicidad.

Click Aquí para más información.


Para ver este contenido oculto, debes dar click en una de las siguientes reacciones : Like Like, Love Love, Haha Haha, Wow Wow, Sad Sad, Angry Angry



 
Última edición por un moderador:

Usuarios Que Están Viendo Este Tema (Total: 1, Miembros: 0, Invitados: 1)

Quién Leyó Este Tema (Total Miembros: 2)

Arriba