Dances with Wolves (1990) Director's Cut 1080p BDRip Audio Inglés [Subt. Esp] (Western. Aventuras. Romance)

Maestro Revolver

Administrador
Registro
9 Ago 2012
Mensajes
3.157
Reacciones (ptje)
55.034


Dances-With-Wolves-1080p.jpg




FichaTecnica.jpg


TÍTULO ORIGINAL: Dances with Wolves
AÑO: 1990
PAÍS: USA
DIRECTOR: Kevin Costner
GUIÓN: Michael Blake (Novela: Michael Blake)
MÚSICA: John Barry
FOTOGRAFÍA: Dean Semler
REPARTO: Kevin Costner, Mary McDonnell, Graham Greene, Rodney A. Grant, Tantoo Cardinal, Robert Pastorelli, Maury Chaykin, Wes Studi, Floyd 'Red Crow' Westerman, Charles Rocket, Steve Reevis
PRODUCTORA: Orion Pictures / Tig Productions
GÉNERO: Western. Aventuras. Romance | Cine épico. Remake
imdb-logo.png
: http://www.imdb.com/title/tt0099348/

PREMIOS: 1991: Festival de Berlín: Oso de Plata - Logro individual sobresaliente (Kevin Costner)
1991: 9 Nominaciones BAFTA, incluyendo mejor película, director y actor (Costner)
1991: Nominada al Cesar: Mejor película extranjera
1990: 7 Oscars: Mejor película, director, guión, fotografía, sonido, bso y montaje
1990: Globos de Oro: Mejor película Drama, director y guión. 6 nominaciones
1990: National Board of Review: Mejor película




Sinopsis.jpg


En torno a 1860, en vísperas de la Guerra de Secesión y a punto de terminar el periodo de colonización del Oeste (1785-1890), el teniente John J. Dunbar se dirige a un lejano puesto fronterizo que ha sido abandonado por los soldados. Su soledad lo impulsa a entrar en contacto con los indios sioux y, gracias a ello, conoce a "En pie con el puño en alto", una mujer blanca que fue adoptada por la tribu cuando era niña. Poco a poco, entre Dunbar y los sioux se establece una relación de respeto y admiración mutuos.




Trailer.jpg






Capturas.jpg


1.jpg


2.jpg


3.jpg


4.jpg


5.jpg


6.jpg


7.jpg


8.jpg


9.jpg


10.jpg


La pelicula NO tiene ninguna marca... solo colocamos el nombre de esta web en las capturas




MediaInfo.jpg


Código:
General
Format                                   : Matroska
Format version                           : Version 2
File size                                : 21.1 GiB
Duration                                 : 3h 56mn
Overall bit rate                         : 12.7 Mbps
Movie name                               : www.club-hd.com
Encoded date                             : UTC 2013-03-12 00:49:53
Writing application                      : mkvmerge v5.7.0 ('The Whirlwind') built on Jul  8 2012 20:08:51
Writing library                          : libebml v1.2.3 + libmatroska v1.3.0

Video
ID                                       : 1
Format                                   : AVC
Format/Info                              : Advanced Video Codec
Format profile                           : [email protected]
Format settings, CABAC                   : Yes
Format settings, ReFrames                : 4 frames
Codec ID                                 : V_MPEG4/ISO/AVC
Duration                                 : 3h 56mn
Bit rate                                 : 10.3 Mbps
Width                                    : 1 920 pixels
Height                                   : 812 pixels
Display aspect ratio                     : 2.35:1
Frame rate mode                          : Constant
Frame rate                               : 23.976 fps
Color space                              : YUV
Chroma subsampling                       : 4:2:0
Bit depth                                : 8 bits
Scan type                                : Progressive
Bits/(Pixel*Frame)                       : 0.277
Stream size                              : 17.1 GiB (81%)
Title                                    : www.club-hd.com
Writing library                          : x264 core 65 r1046M 71d34b4
Language                                 : English
Default                                  : Yes
Forced                                   : No

Audio #1
ID                                       : 2
Format                                   : AC-3
Format/Info                              : Audio Coding 3
Mode extension                           : CM (complete main)
Format settings, Endianness              : Big
Codec ID                                 : A_AC3
Duration                                 : 3h 56mn
Bit rate mode                            : Constant
Bit rate                                 : 640 Kbps
Channel(s)                               : 6 channels
Channel positions                        : Front: L C R, Side: L R, LFE
Sampling rate                            : 48.0 KHz
Bit depth                                : 16 bits
Compression mode                         : Lossy
Stream size                              : 1.06 GiB (5%)
Title                                    : www.club-hd.com  >>  Inglés AC3 5.1
Language                                 : English
Default                                  : Yes
Forced                                   : No

Audio #2
ID                                       : 3
Format                                   : DTS
Format/Info                              : Digital Theater Systems
Mode                                     : 16
Format settings, Endianness              : Big
Codec ID                                 : A_DTS
Duration                                 : 3h 56mn
Bit rate mode                            : Constant
Bit rate                                 : 1 510 Kbps
Channel(s)                               : 6 channels
Channel positions                        : Front: L C R, Side: L R, LFE
Sampling rate                            : 48.0 KHz
Bit depth                                : 24 bits
Compression mode                         : Lossy
Stream size                              : 2.50 GiB (12%)
Title                                    : www.club-hd.com  >>  Inglés DTS 5.1
Language                                 : English
Default                                  : No
Forced                                   : No

Text
ID                                       : 4
Format                                   : UTF-8
Codec ID                                 : S_TEXT/UTF8
Codec ID/Info                            : UTF-8 Plain Text
Language                                 : Spanish
Default                                  : Yes
Forced                                   : No

Menu
00:00:00.000                             : en:00:00:00.000
00:11:45.747                             : en:00:11:45.747
00:19:14.528                             : en:00:19:14.528
00:26:40.432                             : en:00:26:40.432
00:31:39.564                             : en:00:31:39.564
00:36:09.250                             : en:00:36:09.250
00:42:18.703                             : en:00:42:18.703
00:47:21.464                             : en:00:47:21.464
00:51:40.764                             : en:00:51:40.764
00:56:53.869                             : en:00:56:53.869
01:03:56.291                             : en:01:03:56.291
01:11:47.428                             : en:01:11:47.428
01:19:58.043                             : en:01:19:58.043
01:25:33.587                             : en:01:25:33.587
01:41:52.898                             : en:01:41:52.898
01:50:37.923                             : en:01:50:37.923
02:04:31.130                             : en:02:04:31.130
02:15:52.978                             : en:02:15:52.978
02:22:44.347                             : en:02:22:44.347
02:36:55.906                             : en:02:36:55.906
02:41:04.864                             : en:02:41:04.864
02:45:10.109                             : en:02:45:10.109
02:54:57.654                             : en:02:54:57.654
03:06:48.989                             : en:03:06:48.989
03:17:36.678                             : en:03:17:36.678
03:27:44.369                             : en:03:27:44.369
03:38:26.010                             : en:03:38:26.010
03:44:04.097                             : en:03:44:04.097
03:47:38.270                             : en:03:47:38.270
03:51:51.981                             : en:03:51:51.981
03:56:38.476                             : en:03:56:38.476




Descarga.jpg





google-drive-vip.png


Tenemos TODO el material de Club-HD disponible por Mega, enlaces 100% activos y online hasta la fecha

Llévate tus cuentas Mega PRO III gratis con tu membresía VIP!
Todos los posts vivos con links de Mega.
Todo el material de Club-HD desbloqueado y sin publicidad.

Obtén más información sobre nuestras Membresías VIP






MEGA.jpg

Tenemos TODO el material de Club-HD disponible por Mega, enlaces 100% activos y online hasta la fecha

Llévate tus cuentas Mega PRO III gratis con tu membresía VIP!
Todos los posts vivos con links de Mega.
Todo el material de Club-HD desbloqueado y sin publicidad.

Obtén más información sobre nuestras Membresías VIP



UPLOADED_BANNER.png

Para ver este contenido oculto, debes dar click en el botón"Like", o cualquiera de las otras reacciones:

Me Gusta Me Gusta, Me Encanta Me Encanta, Jaja Jaja, Wow Wow, Triste Triste, Molesto Molesto

OPENLOAD.png

Para ver este contenido oculto, debes dar click en el botón"Like", o cualquiera de las otras reacciones:

Me Gusta Me Gusta, Me Encanta Me Encanta, Jaja Jaja, Wow Wow, Triste Triste, Molesto Molesto
 
Última edición por un moderador:
como andan con los clásicos si es que a esta película se le puede llamar clásico porque aun con todo y el años es mejor que muchas modernas muyy bien amigos grandes aportes por día y en su mejor calidad Tb_up3
 
Última edición:
Excelente! Muy buena película, no puede faltar en la colección. Gracias Maestro!... Saludos y Exitos! Sigan así... M_Bu3n0
 
Vale su peso en oro y gigabytes. Sin lugar a dudas la mejor actuación y película que nos ha ofrecido la endeble trayectoria cinematográfica de Kevin Costner y uno de los 10 mejores films del género Western.

Muchas gracias Maestro!:dplgar::dplgar::dplgar:
 
Un clasico de coleccion que no puede faltar, un film de una belleza escenografica maravillosa y el guion espectacular, clasico de clasicos. GRACIAS QUERIDO MASTER, como siempre entregandonos lo mejor en la mejor calidad.Pl4yb0y
 
:OHHH:shokshok Y este Super Clasico y en esta enorme calidad, sea como sea la tengo que tener, no importa lo que tengo que hacer para obtener espacio en mi disco duro, pero lo haré.:aplausos::aplausos::aplausos:

Y esos 21 GiB valen su peso en Oro.:aplausos::aplausos::aplausos:

Gracias por todo Eres un Monstruo de Metal Una Maquina R21!, Incansable.:aplausos::aplausos::LXR::LXR:
 
Volver