David Gilmour - Remember That Night - Live At Royal Albert Hall (2007) m-1080p BDRip [AC3 5.1] (Concierto)

Maestro Revolver

Administrador
Registro
9 Ago 2012
Mensajes
3.157
Reacciones (ptje)
55.041


Aporte Recuperado gracias a nuestro amigo casita

David-Gilmour-CD1.jpg





Sinopsis.jpg


En 2006 David Gilmour realizó una gira por Europa, EE.UU. y Canadá para promocionar su tercer disco solista "On An Island", y la misma se extendió desde el 10 de marzo hasta el 31 de mayo de 2006, y también entre julio y agosto de ese mismo año. En esta gira se grabó un DVD doble titulado Remember That Night Live At The Royal Albert Hall, que fue publicado el 17 de septiembre de 2007, que además contiene un documental sobre la gira y apariciones de David Bowie y Robert Wyatt.



Track List:

01. Speak To Me
02. Breathe (In The Air)
03. Time
04. Breathe (In The Air) (reprise)
05. Castellorizon
06. On An Island (featuring Crosby & Nash)
07. The Blue (featuring Crosby & Nash)
08. Red Sky At Night
09. This Heaven
10. Then I Close My Eyes (featuring Robert Wyatt)
11. Smile
12. Take A Breath
13. A Pocketful Of Stones
14. Where We Start
15. Shine On You Crazy Diamond (featuring Crosby & Nash)
16. Fat Old Sun
17. Coming Back To Life
18. High Hopes
19. Echoes
20. Wish You Were Here
21. Find The Cost Of Freedom (featuring Crosby & Nash)
22. Arnold Layne (featuring David Bowie)
23. Comfortably Numb (featuring David Bowie)




Trailer.jpg






Capturas.jpg


1.jpg


2.jpg


3.jpg


4.jpg


5.jpg


6.jpg





MediaInfo.jpg


Código:
General
Format                                   : Matroska
Format version                           : Version 2
File size                                : 5.27 GiB
Duration                                 : 2h 32mn
Overall bit rate mode                    : Variable
Overall bit rate                         : 4 950 Kbps
Movie name                               : www.club-hd.com
Encoded date                             : UTC 2013-04-06 18:38:29
Writing application                      : mkvmerge v5.7.0 ('The Whirlwind') built on Jul  8 2012 20:08:51
Writing library                          : libebml v1.2.3 + libmatroska v1.3.0

Video
ID                                       : 1
Format                                   : AVC
Format/Info                              : Advanced Video Codec
Format profile                           : [email protected]
Format settings, CABAC                   : Yes
Format settings, ReFrames                : 3 frames
Codec ID                                 : V_MPEG4/ISO/AVC
Duration                                 : 2h 32mn
Bit rate mode                            : Variable
Bit rate                                 : 4 339 Kbps
Maximum bit rate                         : 25.0 Mbps
Width                                    : 1 920 pixels
Height                                   : 1 080 pixels
Display aspect ratio                     : 16:9
Frame rate mode                          : Constant
Frame rate                               : 29.970 fps
Color space                              : YUV
Chroma subsampling                       : 4:2:0
Bit depth                                : 8 bits
Scan type                                : Progressive
Bits/(Pixel*Frame)                       : 0.070
Stream size                              : 4.62 GiB (88%)
Title                                    : www.club-hd.com
Writing library                          : x264 core 125 r2208 d9d2288
Language                                 : English
Default                                  : Yes
Forced                                   : No

Audio
ID                                       : 2
Format                                   : AC-3
Format/Info                              : Audio Coding 3
Mode extension                           : CM (complete main)
Format settings, Endianness              : Big
Codec ID                                 : A_AC3
Duration                                 : 2h 32mn
Bit rate mode                            : Constant
Bit rate                                 : 512 Kbps
Channel(s)                               : 6 channels
Channel positions                        : Front: L C R, Side: L R, LFE
Sampling rate                            : 48.0 KHz
Bit depth                                : 16 bits
Compression mode                         : Lossy
Delay relative to video                  : 200ms
Stream size                              : 558 MiB (10%)
Title                                    : www.club-hd.com
Language                                 : English
Default                                  : Yes
Forced                                   : No

Menu
00:00:00.000                             : en:Chapter 00
00:01:10.770                             : en:Chapter 01
00:04:01.641                             : en:Chapter 02
00:09:16.389                             : en:Chapter 03
00:10:25.725                             : en:Chapter 04
00:15:04.370                             : en:Chapter 05
00:22:40.592                             : en:Chapter 06
00:28:47.425                             : en:Chapter 07
00:31:58.449                             : en:Chapter 08
00:36:13.738                             : en:Chapter 09
00:46:00.023                             : en:Chapter 10
00:50:20.017                             : en:Chapter 11
00:56:28.518                             : en:Chapter 12
01:02:32.181                             : en:Chapter 13
01:10:31.827                             : en:Chapter 14
01:10:32.027                             : en:Chapter 15
01:11:24.179                             : en:Chapter 16
01:22:37.686                             : en:Chapter 17
01:28:59.100                             : en:Chapter 18
01:35:40.067                             : en:Chapter 19
01:44:58.258                             : en:Chapter 20
02:07:16.929                             : en:Chapter 21
02:12:43.555                             : en:Chapter 22
02:14:46.445                             : en:Chapter 23
02:18:57.595                             : en:Chapter 24
02:28:37.808                             : en:Chapter 25




Descarga.jpg



MEGA.jpg

Tenemos TODO el material de Club-HD disponible por Mega, enlaces 100% activos y online hasta la fecha

Llévate tus cuentas Mega PRO III gratis con tu membresía VIP!
Todos los posts vivos con links de Mega.
Todo el material de Club-HD desbloqueado y sin publicidad.

Obtén más información sobre nuestras Membresías VIP



UPLOADED_BANNER.png

Para ver este contenido oculto, debes dar click en el botón"Like", o cualquiera de las otras reacciones:

Me Gusta Me Gusta, Me Encanta Me Encanta, Jaja Jaja, Wow Wow, Triste Triste, Molesto Molesto
 
Última edición por un moderador:
Revolver 21 esta ves si me has sacado una lagrima de felicidad muchisimas gracias :'D este es un excelente aporte enserio muchismas gracias
 
No tengo palabras hermano!!
que joya de recital!!!

gracias totales
 
Genial!! Gran con cierto con Davis Gilmour!! Te luciste Revolver Muchas gracias!!
 
revolver 21.... déjame decirte que con este aporte si que te las mandaste!!!!... pausando todas las descargas y dándole prioridad a esta enseguida xD
 
Fantástico!!! :aplausos: Otro recital estupendo :dplgar: Muchísimas gracias Revo!!!! Saludos bye
 
Volver