Dead in Tombstone (2013) 720p BDRip Dual Latino-Inglés [Subt. Esp] (Acción. Fantástico. Western)

Maestro Revolver

Miembro del Staff
Administrador
Registro
9 Ago 2012
Mensajes
3.161








TÍTULO ORIGINAL: Dead in Tombstone
AÑO: 2013
DURACIÓN: 100 min.
PAÍS: USA
DIRECTOR: Roel Reiné
GUIÓN: Brendan Cowles, Shane Kuhn
REPARTO: Danny Trejo, Anthony Michael Hall, Mickey Rourke, Dina Meyer, Richard Dillane, Catalina Grama, Colin Mace, Ovidiu Niculescu, Ronan Summers, Edward Akrout, Radu Micu, James Jordan, Daniel Lapaine
PRODUCTORA: Universal 1440 Entertainment / CC Capital Arts Entertainment SRL
GÉNERO: Acción. Fantástico. Western
: http://www.imdb.com/title/tt2268419/






Guerrero Hernández (Trejo) es el líder indiscutible de los Blackwater Gang. Tras sacar a su hermanastro Red de la cárcel, su plan es saquear la población minera de Edendale, pero es asesinado por el traicionero Red. Después de hacer un trato con el diablo, Guerrero regresa a la vida para vengarse. Las calles del pueblo, que ahora se llama Tombstone, no tardarán en convertirse en ríos de sangre.
























La pelicula NO tiene ninguna marca... solo colocamos el nombre de esta web en las capturas






Código:
General
Format                                   : Matroska
Format version                           : Version 2
File size                                : 3.52 GiB
Duration                                 : 1h 39mn
Overall bit rate                         : 5 040 Kbps
Movie name                               : www.club-hd.com
Encoded date                             : UTC 2013-09-29 19:10:48
Writing application                      : mkvmerge v5.7.0 ('The Whirlwind') built on Jul  8 2012 20:08:51
Writing library                          : libebml v1.2.3 + libmatroska v1.3.0

Video
ID                                       : 1
Format                                   : AVC
Format/Info                              : Advanced Video Codec
Format profile                           : Main@L4.0
Format settings, CABAC                   : Yes
Format settings, ReFrames                : 4 frames
Codec ID                                 : V_MPEG4/ISO/AVC
Duration                                 : 1h 39mn
Bit rate                                 : 4 300 Kbps
Width                                    : 1 280 pixels
Height                                   : 720 pixels
Display aspect ratio                     : 16:9
Frame rate mode                          : Constant
Frame rate                               : 23.976 fps
Color space                              : YUV
Chroma subsampling                       : 4:2:0
Bit depth                                : 8 bits
Scan type                                : Progressive
Bits/(Pixel*Frame)                       : 0.195
Stream size                              : 2.87 GiB (82%)
Title                                    : www.club-hd.com
Writing library                          : x264 core 130 r2273 b3065e6
Language                                 : English
Default                                  : Yes
Forced                                   : No
Color primaries                          : BT.709
Transfer characteristics                 : BT.709
Matrix coefficients                      : BT.709

Audio #1
ID                                       : 2
Format                                   : AC-3
Format/Info                              : Audio Coding 3
Mode extension                           : CM (complete main)
Format settings, Endianness              : Big
Codec ID                                 : A_AC3
Duration                                 : 1h 39mn
Bit rate mode                            : Constant
Bit rate                                 : 384 Kbps
Channel(s)                               : 6 channels
Channel positions                        : Front: L C R, Side: L R, LFE
Sampling rate                            : 48.0 KHz
Bit depth                                : 16 bits
Compression mode                         : Lossy
Stream size                              : 274 MiB (8%)
Title                                    : www.club-hd.com  >>  Latino
Language                                 : Spanish
Default                                  : Yes
Forced                                   : No

Audio #2
ID                                       : 3
Format                                   : AC-3
Format/Info                              : Audio Coding 3
Mode extension                           : CM (complete main)
Format settings, Endianness              : Big
Codec ID                                 : A_AC3
Duration                                 : 1h 39mn
Bit rate mode                            : Constant
Bit rate                                 : 448 Kbps
Channel(s)                               : 6 channels
Channel positions                        : Front: L C R, Side: L R, LFE
Sampling rate                            : 48.0 KHz
Bit depth                                : 16 bits
Compression mode                         : Lossy
Stream size                              : 320 MiB (9%)
Title                                    : www.club-hd.com  >>  Inglés
Language                                 : English
Default                                  : No
Forced                                   : No

Text
ID                                       : 4
Format                                   : UTF-8
Codec ID                                 : S_TEXT/UTF8
Codec ID/Info                            : UTF-8 Plain Text
Language                                 : Spanish
Default                                  : No
Forced                                   : No








Enlaces de Mega y Google Drive solo disponibles para Miembros VIP

Compra tu Membresía VIP y apoya a Club-HD!

ATENCIÓN! Tenemos TODO el material de Club-HD disponible por Mega y Google Drive, enlaces 100% activos y online hasta la fecha

Llévate tus cuentas Mega PRO III gratis con tu membresía VIP!
Todos los posts vivos con links de Mega y Google Drive.
Todo el material de Club-HD desbloqueado y sin publicidad.

Click Aquí para más información.


Para ver este contenido oculto, debes dar click en una de las siguientes reacciones : Like Like, Love Love, Haha Haha, Wow Wow, Sad Sad, Angry Angry



 
Última edición por un moderador:

Usuarios Que Están Viendo Este Tema (Total: 1, Miembros: 0, Invitados: 1)

Quién Leyó Este Tema (Total Miembros: 2)

Arriba