Death Note 2: The Last Name (2006) m-720p BDRip Dual Japonés-Español [Subt. Esp] (Thriller. Intriga)

Maestro Revolver

Miembro del Staff
Administrador
Registro
9 Ago 2012
Mensajes
3.157








TÍTULO ORIGINAL: Desu Nôto: The Last Name (Death Note 2: The Last Name)
AÑO: 2006
DURACIÓN: 141 min.
PAÍS: Japón
DIRECTOR: Shusuke Kaneko
GUIÓN: Tetsuya Oishi (Manga: Takeshi Obata, Tsugumi Ôba)
REPARTO: Tatsuya Fujiwara, Takeshi Kaga, Shido Nakamura, Erika Toda, Shigeki Hosokawa, Shunji Fujimura, Ken'ichi Matsuyama, Shin Shimizu, Sota Aoyama, Magy
PRODUCTORA: Death Note Film Partners / Nippon Television Network Corporation (NTV) / Shueisha / Warner Bros.
GÉNERO: Thriller. Intriga. Aventuras. Terror | Secuela. Manga. Sobrenatural. Asesinos en serie
: http://www.imdb.com/title/tt0810827/






Adaptación a imagen real del anime homónimo. De forma similar a Kill Bill, se divide en dos películas: Death Note y Death Note: The Last Name, ambas estrenadas en 2006 en Japón. Esta segunda película continúa desde el punto de la anterior y narra el enfrentamiento final entre Light y "L".
























La pelicula NO tiene ninguna marca... solo colocamos el nombre de esta web en las capturas






Código:
General
Format                                   : Matroska
Format version                           : Version 2
File size                                : 3.64 GiB
Duration                                 : 2h 20mn
Overall bit rate                         : 3 708 Kbps
Movie name                               : www.club-hd.com
Encoded date                             : UTC 2013-06-08 13:58:31
Writing application                      : mkvmerge v5.7.0 ('The Whirlwind') built on Jul  8 2012 20:08:51
Writing library                          : libebml v1.2.3 + libmatroska v1.3.0

Video
ID                                       : 1
Format                                   : AVC
Format/Info                              : Advanced Video Codec
Format profile                           : High@L4.1
Format settings, CABAC                   : Yes
Format settings, ReFrames                : 8 frames
Codec ID                                 : V_MPEG4/ISO/AVC
Duration                                 : 2h 20mn
Bit rate                                 : 2 620 Kbps
Width                                    : 1 280 pixels
Height                                   : 720 pixels
Display aspect ratio                     : 16:9
Frame rate mode                          : Constant
Frame rate                               : 23.976 fps
Color space                              : YUV
Chroma subsampling                       : 4:2:0
Bit depth                                : 8 bits
Scan type                                : Progressive
Bits/(Pixel*Frame)                       : 0.119
Stream size                              : 2.50 GiB (69%)
Title                                    : www.club-hd.com
Writing library                          : x264 core 125 r2200 999b753
Language                                 : Japanese
Default                                  : Yes
Forced                                   : No

Audio #1
ID                                       : 2
Format                                   : AC-3
Format/Info                              : Audio Coding 3
Mode extension                           : CM (complete main)
Format settings, Endianness              : Big
Codec ID                                 : A_AC3
Duration                                 : 2h 20mn
Bit rate mode                            : Constant
Bit rate                                 : 640 Kbps
Channel(s)                               : 6 channels
Channel positions                        : Front: L C R, Side: L R, LFE
Sampling rate                            : 48.0 KHz
Bit depth                                : 16 bits
Compression mode                         : Lossy
Stream size                              : 644 MiB (17%)
Title                                    : www.club-hd.com  >>  Japonés
Language                                 : Japanese
Default                                  : Yes
Forced                                   : No

Audio #2
ID                                       : 3
Format                                   : AC-3
Format/Info                              : Audio Coding 3
Mode extension                           : CM (complete main)
Format settings, Endianness              : Big
Codec ID                                 : A_AC3
Duration                                 : 2h 20mn
Bit rate mode                            : Constant
Bit rate                                 : 448 Kbps
Channel(s)                               : 6 channels
Channel positions                        : Front: L C R, Side: L R, LFE
Sampling rate                            : 48.0 KHz
Bit depth                                : 16 bits
Compression mode                         : Lossy
Stream size                              : 451 MiB (12%)
Title                                    : www.club-hd.com  >>  Español
Language                                 : Spanish
Default                                  : No
Forced                                   : No

Text
ID                                       : 4
Format                                   : UTF-8
Codec ID                                 : S_TEXT/UTF8
Codec ID/Info                            : UTF-8 Plain Text
Language                                 : Spanish
Default                                  : Yes
Forced                                   : No

Menu
00:00:00.000                             : en:Chapter 1
00:22:59.962                             : en:Chapter 2
00:45:59.924                             : en:Chapter 3
01:08:59.886                             : en:Chapter 4
01:31:59.931                             : en:Chapter 5
01:54:59.893                             : en:Chapter 6








Enlaces de Mega y Google Drive solo disponibles para Miembros VIP

Compra tu Membresía VIP y apoya a Club-HD!

ATENCIÓN! Tenemos TODO el material de Club-HD disponible por Mega y Google Drive, enlaces 100% activos y online hasta la fecha

Llévate tus cuentas Mega PRO III gratis con tu membresía VIP!
Todos los posts vivos con links de Mega y Google Drive.
Todo el material de Club-HD desbloqueado y sin publicidad.

Click Aquí para más información.




Enlaces de Mega y Google Drive solo disponibles para Miembros VIP

Compra tu Membresía VIP y apoya a Club-HD!

ATENCIÓN! Tenemos TODO el material de Club-HD disponible por Mega y Google Drive, enlaces 100% activos y online hasta la fecha

Llévate tus cuentas Mega PRO III gratis con tu membresía VIP!
Todos los posts vivos con links de Mega y Google Drive.
Todo el material de Club-HD desbloqueado y sin publicidad.

Click Aquí para más información.



Para ver este contenido oculto, debes dar click en una de las siguientes reacciones : Like Like, Love Love, Haha Haha, Wow Wow, Sad Sad, Angry Angry

 
Última edición por un moderador:

HemoAr

Dohko de Libra
Administrador
Registro
9 Mar 2013
Mensajes
8.239
Ubicación
Rozan
Para la coleccion completa la 2 tambien, buena peli. Gracias Revo.
 
Registro
5 Sep 2012
Mensajes
1.107
son 2 grandes super películas las habias visto en dvd y ahora asi no me las voy a perder y las volvere a ver se te agradece al máximo ,me pregunto si subirás la de "L" y así completar ,igual gracias bestia !:aplausos:
 

Usuarios Que Están Viendo Este Tema (Total: 2, Miembros: 0, Invitados: 2)

Quién Leyó Este Tema (Total Miembros: 3)

Arriba