Death Note - L: Change the World (2008) m-720p BDRip Audio Japonés [Subt. Esp] (Thriller)

Maestro Revolver

Administrador
Registro
9 Ago 2012
Mensajes
3.157
Reacciones (ptje)
55.208


DeathNote-3.jpg




FichaTecnica.jpg


TÍTULO ORIGINAL: L: Change the World (Death Note - L: Change the World)
AÑO: 2008
DURACIÓN: 118 min.
PAÍS: Japón
DIRECTOR: Hideo Nakata
GUIÓN: Kiyomi Fujii, Hirotoshi Kobayashi (Manga: Tsugumi Ôba, Takeshi Obata)
REPARTO: Ken'ichi Matsuyama, Shunji Fujimura, Mayuko Fukuda, Sei Hiraizumi, Renji Ishibashi, Yuta Kanai, Yoiki Kudoh, Bokuzo Masana, Kiyotaka Nanbara, Megumi Sato, Masanobu Takashima, Erika Toda, Shingo Tsurumi
PRODUCTORA: Nippon Television Network Corporation (NTV) / L Film Partners
GÉNERO: Thriller | Manga. Spin-off
imdb-logo.png
: http://www.imdb.com/title/tt0912597/




Sinopsis.jpg


Spin-off del popular anime/manga Death Note, centrado en el personaje de L. Dirigida por Hideo Nakata (Ringu). La historia ocurre durante los 20 días que le quedan a L de vida desde que atraparon a Kira y éste escribió su nombre en la Death Note. En algún lugar de Tailandia, un virus artificial mata la gente de una pequeña villa. El virus rápidamente se convierte en una arma química que todos quieren obtener en el mercado negro, pero el virus muta y el antídoto deja de funcionar. La villa es destruida, pero un pequeño niño contagiado escapa y logra huir a Tokio de una banda de Eco-Terroristas que quieren salvar al mundo usando el virus para acabar con la humanidad. En Tokio, L promete usar los días que le quedan de vida para proteger a este niño.




Trailer.jpg






Capturas.jpg


1.jpg


2.jpg


3.jpg


4.jpg


5.jpg


6.jpg


La pelicula NO tiene ninguna marca... solo colocamos el nombre de esta web en las capturas




MediaInfo.jpg


Código:
General
Format                                   : Matroska
Format version                           : Version 2
File size                                : 3.00 GiB
Duration                                 : 2h 8mn
Overall bit rate                         : 3 331 Kbps
Movie name                               : www.club-hd.com
Encoded date                             : UTC 2013-06-08 15:51:38
Writing application                      : mkvmerge v5.7.0 ('The Whirlwind') built on Jul  8 2012 20:08:51
Writing library                          : libebml v1.2.3 + libmatroska v1.3.0

Video
ID                                       : 1
Format                                   : AVC
Format/Info                              : Advanced Video Codec
Format profile                           : [email protected]
Format settings, CABAC                   : Yes
Format settings, ReFrames                : 8 frames
Codec ID                                 : V_MPEG4/ISO/AVC
Duration                                 : 2h 8mn
Bit rate                                 : 2 690 Kbps
Width                                    : 1 280 pixels
Height                                   : 692 pixels
Display aspect ratio                     : 1.85:1
Frame rate mode                          : Constant
Frame rate                               : 23.976 fps
Color space                              : YUV
Chroma subsampling                       : 4:2:0
Bit depth                                : 8 bits
Scan type                                : Progressive
Bits/(Pixel*Frame)                       : 0.127
Stream size                              : 2.36 GiB (79%)
Title                                    : www.club-hd.com
Writing library                          : x264 core 125 r2200 999b753
Language                                 : Japanese
Default                                  : Yes
Forced                                   : No

Audio
ID                                       : 2
Format                                   : AC-3
Format/Info                              : Audio Coding 3
Mode extension                           : CM (complete main)
Format settings, Endianness              : Big
Codec ID                                 : A_AC3
Duration                                 : 2h 8mn
Bit rate mode                            : Constant
Bit rate                                 : 640 Kbps
Channel(s)                               : 6 channels
Channel positions                        : Front: L C R, Side: L R, LFE
Sampling rate                            : 48.0 KHz
Bit depth                                : 16 bits
Compression mode                         : Lossy
Stream size                              : 590 MiB (19%)
Title                                    : www.club-hd.com
Language                                 : Japanese
Default                                  : Yes
Forced                                   : No

Text
ID                                       : 3
Format                                   : UTF-8
Codec ID                                 : S_TEXT/UTF8
Codec ID/Info                            : UTF-8 Plain Text
Language                                 : Spanish
Default                                  : Yes
Forced                                   : No

Menu
00:00:00.000                             : en:Chapter 01
00:04:27.558                             : en:Chapter 02
00:14:44.174                             : en:Chapter 03
00:19:36.090                             : en:Chapter 04
00:23:20.398                             : en:Chapter 05
00:27:32.233                             : en:Chapter 06
00:29:16.755                             : en:Chapter 07
00:33:03.940                             : en:Chapter 08
00:38:58.544                             : en:Chapter 09
00:40:35.433                             : en:Chapter 10
00:46:23.572                             : en:Chapter 11
00:53:11.021                             : en:Chapter 12
00:56:01.565                             : en:Chapter 13
01:00:07.478                             : en:Chapter 14
01:06:09.548                             : en:Chapter 15
01:09:59.195                             : en:Chapter 16
01:16:46.602                             : en:Chapter 17
01:21:57.621                             : en:Chapter 18
01:23:09.859                             : en:Chapter 19
01:29:37.455                             : en:Chapter 20
01:37:03.067                             : en:Chapter 21
01:42:50.080                             : en:Chapter 22
01:44:59.042                             : en:Chapter 23
01:49:11.878                             : en:Chapter 24
01:54:39.956                             : en:Chapter 25
01:59:15.189                             : en:Chapter 26
02:00:48.115                             : en:Chapter 27
02:04:05.438                             : en:Chapter 28
02:08:43.924                             : en:Chapter 29




Descarga.jpg



MEGA.jpg

Tenemos TODO el material de Club-HD disponible por Mega, enlaces 100% activos y online hasta la fecha

Llévate tus cuentas Mega PRO III gratis con tu membresía VIP!
Todos los posts vivos con links de Mega.
Todo el material de Club-HD desbloqueado y sin publicidad.

Obtén más información sobre nuestras Membresías VIP


UPLOADED_BANNER.png

Para ver este contenido oculto, debes dar click en el botón"Like", o cualquiera de las otras reacciones:

Me Gusta Me Gusta, Me Encanta Me Encanta, Jaja Jaja, Wow Wow, Triste Triste, Molesto Molesto

 
Última edición por un moderador:
De los 3 Live Action esta fue la única que no me gusto :S


Tanto la serie como sus especiales y estos Live Action están excelentes, RECOMENDADISIMA en especial la serie :D

Gracias por el aporte!

Saludos :D
 
Buenos aportes Revo22, ya estoy descargango en dual. Gracias
 
Volver