Death Race (2008) UNRATED 1080p BDRip Dual Latino-Inglés [Subt. Esp-Ing] (Acción. Aventura)

Maestro Revolver

Well-known member
Miembro del Staff
Administrador
Registro
9 Ago 2012
Mensajes
3.567







TÍTULO ORIGINAL: Death Race
AÑO: 2008
PAÍS: USA
DIRECTOR: Paul W.S. Anderson
GUIÓN: Paul W.S. Anderson, J.F. Lawton
REPARTO: Jason Statham, Joan Allen, Tyrese Gibson, Ian McShane, Natalie Martinez, Max Ryan, Jacob Vargas, Frederick Koehler, Justin Mader, Jason Clarke, Robert LaSardo, Robin Shou
PRODUCTORA: Cruise/Wagner Productions / Impact Pictures
GÉNERO: Acción. Aventuras. Ciencia ficción. Thriller | Automovilismo. Remake
: http://www.imdb.es/title/tt0452608/






En un futuro próximo. Una penitenciaría atestada de presos inspiró a los carceleros para crear un pasatiempo tan cruel como lucrativo. Presos capaces de todo, un público global hambriento de violencia televisada y un ruedo espectacular se unen en DEATH RACE. El tricampeón de velocidad Jensen Ames (Jason Statham) es todo un experto a la hora de sobrevivir en el desértico paisaje en el que se ha convertido el país. Cree haber cambiado de vida, pero el ex convicto es acusado de un terrible crimen que no ha cometido. La directora de Terminal Island (Joan Allen) le obliga a ponerse la máscara de Frankenstein, un favorito del público al que parece imposible matar, y le da dos opciones: competir o pudrirse en una celda. Con el rostro escondido detrás de la máscara metálica, el preso deberá sobrevivir a los tres días más terribles de su vida, enfrentándose a los peores criminales procedentes de las cárceles más duras del país si quiere salir libre. Al volante de un monstruoso coche armado con ametralladoras, lanzallamas y lanzagranadas, este hombre desesperado será capaz de destruir todo lo que se interponga en su camino para ganar el juego de masas más retorcido de la Tierra.






























La pelicula NO tiene ninguna marca... solo colocamos el nombre de esta web en las capturas






Código:
General
Format                                   : Matroska
Format version                           : Version 4 / Version 2
File size                                : 13.9 GiB
Duration                                 : 1h 50mn
Overall bit rate                         : 18.0 Mbps
Movie name                               : www.club-hd.com
Encoded date                             : UTC 2014-09-14 21:50:44
Writing application                      : mkvmerge v7.1.0 ('Good Love') 64bit built on Jul 27 2014 13:06:55
Writing library                          : libebml v1.3.0 + libmatroska v1.4.1
DURATION                                 : 01:50:35.605000000

Video
ID                                       : 1
Format                                   : AVC
Format/Info                              : Advanced Video Codec
Format profile                           : High@L4.1
Format settings, CABAC                   : Yes
Format settings, ReFrames                : 4 frames
Codec ID                                 : V_MPEG4/ISO/AVC
Duration                                 : 1h 50mn
Bit rate                                 : 15.4 Mbps
Width                                    : 1 920 pixels
Height                                   : 816 pixels
Display aspect ratio                     : 2.35:1
Frame rate mode                          : Constant
Frame rate                               : 23.976 fps
Color space                              : YUV
Chroma subsampling                       : 4:2:0
Bit depth                                : 8 bits
Scan type                                : Progressive
Bits/(Pixel*Frame)                       : 0.409
Stream size                              : 11.6 GiB (84%)
Title                                    : www.club-hd.com
Writing library                          : x264 core 65 r1042M 5df2a71
Language                                 : English
Default                                  : Yes
Forced                                   : No

Audio #1
ID                                       : 2
Format                                   : AC-3
Format/Info                              : Audio Coding 3
Mode extension                           : CM (complete main)
Format settings, Endianness              : Big
Codec ID                                 : A_AC3
Duration                                 : 1h 50mn
Bit rate mode                            : Constant
Bit rate                                 : 448 Kbps
Channel(s)                               : 6 channels
Channel positions                        : Front: L C R, Side: L R, LFE
Sampling rate                            : 44.1 KHz
Bit depth                                : 16 bits
Compression mode                         : Lossy
Stream size                              : 354 MiB (2%)
Title                                    : www.club-hd.com  >>  Latino
Language                                 : Spanish
Default                                  : Yes
Forced                                   : No

Audio #2
ID                                       : 3
Format                                   : AC-3
Format/Info                              : Audio Coding 3
Mode extension                           : CM (complete main)
Format settings, Endianness              : Big
Codec ID                                 : A_AC3
Duration                                 : 1h 50mn
Bit rate mode                            : Constant
Bit rate                                 : 640 Kbps
Channel(s)                               : 6 channels
Channel positions                        : Front: L C R, Side: L R, LFE
Sampling rate                            : 48.0 KHz
Bit depth                                : 16 bits
Compression mode                         : Lossy
Stream size                              : 506 MiB (4%)
Title                                    : www.club-hd.com  >>  Inglés
Language                                 : English
Default                                  : No
Forced                                   : No

Audio #3
ID                                       : 4
Format                                   : DTS
Format/Info                              : Digital Theater Systems
Mode                                     : 16
Format settings, Endianness              : Big
Codec ID                                 : A_DTS
Duration                                 : 1h 50mn
Bit rate mode                            : Constant
Bit rate                                 : 1 509 Kbps
Channel(s)                               : 6 channels
Channel positions                        : Front: L C R, Side: L R, LFE
Sampling rate                            : 48.0 KHz
Bit depth                                : 24 bits
Compression mode                         : Lossy
Stream size                              : 1.17 GiB (8%)
Title                                    : www.club-hd.com  >>  Inglés DTS 5.1 @ 1.5 Mbps
Language                                 : English
Default                                  : No
Forced                                   : No

Text
ID                                       : 5
Format                                   : UTF-8
Codec ID                                 : S_TEXT/UTF8
Codec ID/Info                            : UTF-8 Plain Text
Language                                 : Spanish
Default                                  : No
Forced                                   : No

Menu
00:00:00.000                             : en:Chapter 1
00:04:10.584                             : en:Chapter 2
00:12:15.068                             : en:Chapter 3
00:16:05.339                             : en:Chapter 4
00:19:26.499                             : en:Chapter 5
00:24:13.786                             : en:Chapter 6
00:33:04.441                             : en:Chapter 7
00:37:19.279                             : en:Chapter 8
00:43:45.414                             : en:Chapter 9
00:52:14.173                             : en:Chapter 10
00:59:36.698                             : en:Chapter 11
01:03:48.950                             : en:Chapter 12
01:07:46.104                             : en:Chapter 13
01:12:45.444                             : en:Chapter 14
01:20:16.645                             : en:Chapter 15
01:24:47.457                             : en:Chapter 16
01:28:38.271                             : en:Chapter 17
01:33:25.642                             : en:Chapter 18
01:41:49.103                             : en:Chapter 19
01:44:33.392                             : en:Chapter 20




Contraseña: www.club-hd.com







Enlaces de Mega y Google Drive solo disponibles para Miembros VIP

Compra tu Membresía VIP y apoya a Club-HD!

ATENCIÓN! Tenemos TODO el material de Club-HD disponible por Mega y Google Drive, enlaces 100% activos y online hasta la fecha

Llévate tus cuentas Mega PRO III gratis con tu membresía VIP!
Todos los posts vivos con links de Mega y Google Drive.
Todo el material de Club-HD desbloqueado y sin publicidad.

Click Aquí para más información.



Para ver este contenido oculto, debes dar click en una de las siguientes reacciones : Like Like, Love Love, Haha Haha, Wow Wow, Sad Sad, Angry Angry
 
Última edición por un moderador:

Usuarios Que Están Viendo Este Tema (Total: 1, Miembros: 0, Invitados: 1)

Quién Leyó Este Tema (Total Miembros: 3)

Arriba