Depeche Mode - Tour of the Universe (2009) m-1080p BDRip [AC3 5.1] (Concierto)

Maestro Revolver

Administrador
Registro
9 Ago 2012
Mensajes
3.157
Reacciones (ptje)
55.041

Depeche-Mode-Tour-of-the-Universe.jpg





Sinopsis.jpg


El primer concierto en Blu-Ray grupo Depeche Mode! Tour Of The Universe, que consiste de 102 conciertos en 40 países, vieron más de 2,7 millones de personas, haciendo de él uno de los tours más exitosos en la historia reciente. Dave Gahan, Martin Gore y Andrew Fletcher realizó material ohvatishy historia de casi 30 años del grupo. El concierto fue grabado durante dos notables actuaciones en Barcelona (España) en el Palau Sant Jordi 20 al 21 noviembre 2009 y se compone de 21 temas.



Track List:

01. In Chains
02. Wrong
03. Hole To Feed
04. Walking In My Shoes
05. It’s No Good
06. A Question Of Time
07. Precious
08. Fly On The Windscreen
09. Jezebel
10. Home
11. Come Back
12. Policy Of Truth
13. In Your Room
14. I Feel You
15. Enjoy The Silence
16. Never Let Me Down Again
17. Dressed In Black
18. Stripped
19. Behind The Wheel
20. Personal Jesus
21. Waiting For The Night




Trailer.jpg






Capturas.jpg


1.jpg


2.jpg


3.jpg


4.jpg


5.jpg


6.jpg





MediaInfo.jpg


Código:
General
Format                                   : Matroska
Format version                           : Version 2
File size                                : 3.63 GiB
Duration                                 : 2h 1mn
Overall bit rate                         : 4 290 Kbps
Movie name                               : www.club-hd.com
Encoded date                             : UTC 2013-04-06 19:29:04
Writing application                      : mkvmerge v5.7.0 ('The Whirlwind') built on Jul  8 2012 20:08:51
Writing library                          : libebml v1.2.3 + libmatroska v1.3.0

Video
ID                                       : 1
Format                                   : AVC
Format/Info                              : Advanced Video Codec
Format profile                           : [email protected]
Format settings, CABAC                   : Yes
Format settings, ReFrames                : 4 frames
Codec ID                                 : V_MPEG4/ISO/AVC
Duration                                 : 2h 1mn
Bit rate                                 : 3 650 Kbps
Width                                    : 1 920 pixels
Height                                   : 832 pixels
Display aspect ratio                     : 2.35:1
Frame rate mode                          : Constant
Frame rate                               : 29.970 fps
Color space                              : YUV
Chroma subsampling                       : 4:2:0
Bit depth                                : 8 bits
Scan type                                : Progressive
Bits/(Pixel*Frame)                       : 0.076
Stream size                              : 3.02 GiB (83%)
Title                                    : www.club-hd.com
Writing library                          : x264 core 104 r1675 2484aa0
Language                                 : English
Default                                  : Yes
Forced                                   : No

Audio
ID                                       : 2
Format                                   : AC-3
Format/Info                              : Audio Coding 3
Mode extension                           : CM (complete main)
Format settings, Endianness              : Big
Codec ID                                 : A_AC3
Duration                                 : 2h 1mn
Bit rate mode                            : Constant
Bit rate                                 : 640 Kbps
Channel(s)                               : 6 channels
Channel positions                        : Front: L C R, Side: L R, LFE
Sampling rate                            : 48.0 KHz
Bit depth                                : 16 bits
Compression mode                         : Lossy
Stream size                              : 555 MiB (15%)
Title                                    : www.club-hd.com
Language                                 : English
Default                                  : Yes
Forced                                   : No

Menu
00:00:00.000                             : en:1. In Chains
00:07:59.178                             : en:2. Wrong
00:11:41.867                             : en:3. Hole to Feed
00:15:53.552                             : en:4. Walking In My Shoes
00:22:20.372                             : en:5. It's No Good
00:27:29.981                             : en:6. A Question Of Time
00:32:04.522                             : en:7.  Precious
00:36:54.312                             : en:8. Fly On The Windscreen
00:42:29.480                             : en:9. Jezebel
00:47:11.995                             : en:10.  Home
00:53:53.463                             : en:11. Come Back
00:59:45.815                             : en:12. Policy Of Truth
01:04:55.324                             : en:13. In Your Room
01:10:24.019                             : en:14. I Feel You
01:16:34.923                             : en:15. Enjoy The Silence
01:23:49.290                             : en:16. Never Let Me Down Again
01:31:52.874                             : en:17. Dressed In Black
01:36:21.008                             : en:18. Stripped
01:41:44.932                             : en:19. Behind The Wheel
01:46:53.140                             : en:20. Personal Jesus
01:53:12.085                             : en:21. Waiting For The Night
01:59:50.750                             : en:22. Credits




Descarga.jpg



MEGA.jpg

Tenemos TODO el material de Club-HD disponible por Mega, enlaces 100% activos y online hasta la fecha

Llévate tus cuentas Mega PRO III gratis con tu membresía VIP!
Todos los posts vivos con links de Mega.
Todo el material de Club-HD desbloqueado y sin publicidad.

Obtén más información sobre nuestras Membresías VIP



UPLOADED_BANNER.png

Para ver este contenido oculto, debes dar click en el botón"Like", o cualquiera de las otras reacciones:

Me Gusta Me Gusta, Me Encanta Me Encanta, Jaja Jaja, Wow Wow, Triste Triste, Molesto Molesto
 
Última edición por un moderador:
Depeche en menos de 4Gb y en 1080? Esta me la llevo!!! Desc_g_
 
Volver