Despicable Me 2 (2013) 3D H-SBS 1080p BDRip Dual Latino-Inglés [Subt. Esp] (Animación)

Maestro Revolver

Well-known member
Miembro del Staff
Administrador
Registro
9 Ago 2012
Mensajes
3.567








TÍTULO ORIGINAL: Despicable Me 2
AÑO: 2013
DURACIÓN: 98 min.
PAÍS: USA
DIRECTOR: Pierre Coffin, Chris Renaud
GUIÓN: Ken Daurio, Cinco Paul
REPARTO: Animation
PRODUCTORA: Illumination Entertainment / Universal Pictures
GÉNERO: Animación. Comedia. Ciencia ficción. Infantil | Familia. Secuela. 3-D
: http://www.imdb.com/title/tt1690953/






Ahora que el incansable y emprendedor Gru ha dejado atrás una vida dedicada a las fechorías para criar a Margo, Edith y Agnes, dispone de mucho tiempo libre para disfrutarlo con ellas, el Dr. Nefario y los minions. Pero, justo cuando empieza a adaptarse a su papel de hombre de familia, una organización mundial ultrasecreta dedicada a la lucha contra el mal llama a su puerta. Junto con su nueva compañera de aventuras, Lucy Wilde, Gru tendrá que descubrir quién es el responsable de un espectacular y malévolo plan y llevarlo ante la justicia. Y es que hace falta echar mano del mayor ex-villano del mundo para atrapar a quien aspira a ocupar ese lugar.
























La pelicula NO tiene ninguna marca... solo colocamos el nombre de esta web en las capturas






Código:
General
Format                                   : Matroska
Format version                           : Version 3 / Version 2
File size                                : 9.46 GiB
Duration                                 : 1h 38mn
Overall bit rate                         : 13.8 Mbps
Movie name                               : www.club-hd.com
Encoded date                             : UTC 2013-10-22 23:29:30
Writing application                      : mkvmerge v5.7.0 ('The Whirlwind') built on Jul  8 2012 20:08:51
Writing library                          : libebml v1.2.3 + libmatroska v1.3.0
Attachment                               : Yes / Yes

Video
ID                                       : 1
Format                                   : AVC
Format/Info                              : Advanced Video Codec
Format profile                           : High@L4.1
MultiView_Count                          : 2
MultiView_Layout                         : Side by Side (left eye first)
Format settings, CABAC                   : Yes
Format settings, ReFrames                : 4 frames
Codec ID                                 : V_MPEG4/ISO/AVC
Duration                                 : 1h 38mn
Bit rate                                 : 10.2 Mbps
Width                                    : 1 920 pixels
Height                                   : 1 080 pixels
Display aspect ratio                     : 16:9
Frame rate mode                          : Constant
Frame rate                               : 23.976 fps
Color space                              : YUV
Chroma subsampling                       : 4:2:0
Bit depth                                : 8 bits
Scan type                                : Progressive
Bits/(Pixel*Frame)                       : 0.206
Stream size                              : 6.83 GiB (72%)
Title                                    : www.club-hd.com
Writing library                          : x264 core 130 r2273 b3065e6
Language                                 : English
Default                                  : Yes
Forced                                   : No

Audio #1
ID                                       : 2
Format                                   : DTS
Format/Info                              : Digital Theater Systems
Mode                                     : 16
Format settings, Endianness              : Big
Codec ID                                 : A_DTS
Duration                                 : 1h 38mn
Bit rate mode                            : Constant
Bit rate                                 : 768 Kbps
Channel(s)                               : 6 channels
Channel positions                        : Front: L C R, Side: L R, LFE
Sampling rate                            : 48.0 KHz
Bit depth                                : 24 bits
Compression mode                         : Lossy
Stream size                              : 539 MiB (6%)
Title                                    : www.club-hd.com  >>  Latino DTS
Language                                 : Spanish
Default                                  : Yes
Forced                                   : No

Audio #2
ID                                       : 3
Format                                   : AC-3
Format/Info                              : Audio Coding 3
Mode extension                           : CM (complete main)
Format settings, Endianness              : Big
Codec ID                                 : A_AC3
Duration                                 : 1h 38mn
Bit rate mode                            : Constant
Bit rate                                 : 640 Kbps
Channel(s)                               : 6 channels
Channel positions                        : Front: L C R, Side: L R, LFE
Sampling rate                            : 48.0 KHz
Bit depth                                : 16 bits
Compression mode                         : Lossy
Stream size                              : 449 MiB (5%)
Title                                    : www.club-hd.com  >>  Latino AC3
Language                                 : Spanish
Default                                  : No
Forced                                   : No

Audio #3
ID                                       : 4
Format                                   : DTS
Format/Info                              : Digital Theater Systems
Mode                                     : 16
Format settings, Endianness              : Big
Codec ID                                 : A_DTS
Duration                                 : 1h 38mn
Bit rate mode                            : Constant
Bit rate                                 : 1 509 Kbps
Channel(s)                               : 6 channels
Channel positions                        : Front: L C R, Side: L R, LFE
Sampling rate                            : 48.0 KHz
Bit depth                                : 24 bits
Compression mode                         : Lossy
Stream size                              : 1.03 GiB (11%)
Title                                    : www.club-hd.com  >>  Inglés DTS
Language                                 : English
Default                                  : No
Forced                                   : No

Audio #4
ID                                       : 5
Format                                   : AC-3
Format/Info                              : Audio Coding 3
Mode extension                           : CM (complete main)
Format settings, Endianness              : Big
Codec ID                                 : A_AC3
Duration                                 : 1h 38mn
Bit rate mode                            : Constant
Bit rate                                 : 640 Kbps
Channel(s)                               : 6 channels
Channel positions                        : Front: L C R, Side: L R, LFE
Sampling rate                            : 48.0 KHz
Bit depth                                : 16 bits
Compression mode                         : Lossy
Stream size                              : 449 MiB (5%)
Title                                    : www.club-hd.com  >>  Inglés AC3
Language                                 : English
Default                                  : No
Forced                                   : No

Text #1
ID                                       : 6
Format                                   : VobSub
Muxing mode                              : zlib
Codec ID                                 : S_VOBSUB
Codec ID/Info                            : The same subtitle format used on DVDs
Title                                    : Forzados 3D
Language                                 : Spanish
Default                                  : Yes
Forced                                   : No

Text #2
ID                                       : 7
Format                                   : VobSub
Muxing mode                              : zlib
Codec ID                                 : S_VOBSUB
Codec ID/Info                            : The same subtitle format used on DVDs
Title                                    : Completos 3D
Language                                 : Spanish
Default                                  : No
Forced                                   : No

Menu
00:00:00.000                             : :1 - 0:00:00
00:03:22.994                             : :2 - 0:03:22
00:08:04.734                             : :3 - 0:08:04
00:15:50.867                             : :4 - 0:15:50
00:18:28.232                             : :5 - 0:18:28
00:24:36.892                             : :6 - 0:24:36
00:30:50.724                             : :7 - 0:30:50
00:34:40.704                             : :8 - 0:34:40
00:40:48.279                             : :9 - 0:40:48
00:46:26.200                             : :10 - 0:46:26
00:51:23.122                             : :11 - 0:51:23
00:56:27.426                             : :12 - 0:56:27
01:00:00.472                             : :13 - 1:00:00
01:03:27.053                             : :14 - 1:03:27
01:08:44.078                             : :15 - 1:08:44
01:14:01.979                             : :16 - 1:14:01
01:18:08.058                             : :17 - 1:18:08
01:22:33.907                             : :18 - 1:22:33
01:27:09.099                             : :19 - 1:27:09
01:30:33.720                             : :20 - 1:30:33








Enlaces de Mega y Google Drive solo disponibles para Miembros VIP

Compra tu Membresía VIP y apoya a Club-HD!

ATENCIÓN! Tenemos TODO el material de Club-HD disponible por Mega y Google Drive, enlaces 100% activos y online hasta la fecha

Llévate tus cuentas Mega PRO III gratis con tu membresía VIP!
Todos los posts vivos con links de Mega y Google Drive.
Todo el material de Club-HD desbloqueado y sin publicidad.

Click Aquí para más información.



Para ver este contenido oculto, debes dar click en una de las siguientes reacciones : Like Like, Love Love, Haha Haha, Wow Wow, Sad Sad, Angry Angry
 
Última edición por un moderador:

Usuarios Que Están Viendo Este Tema (Total: 1, Miembros: 0, Invitados: 1)

Quién Leyó Este Tema (Total Miembros: 1)

Arriba