Diary of a Wimpy Kid: Dog Days (2012) m-720p Dual Latino-Inglés [Subt. Esp-Ing] (Comedia)

Maestro Revolver

Well-known member
Miembro del Staff
Administrador
Registro
9 Ago 2012
Mensajes
3.569
Reacciones
59.354
Puntos
113

Reputation:









TÍTULO ORIGINAL: Diary of a Wimpy Kid: Dog Days
AÑO: 2012
DURACIÓN: 94 min.
PAÍS: USA
DIRECTOR: David Bowers
GUIÓN: Gabe Sachs, Maya Forbes (Libro: Jeff Kiney)
REPARTO: Zachary Gordon, Robert Capron, Devon Bostick, Rachael Harris
PRODUCTORA: Color Force / Fox 2000 Pictures / TCF Vancouver Productions
GÉNERO: Comedia | Secuela. Cine familiar. Cómic. Infancia. Perros/Lobos
: http://www.imdb.com/title/tt2023453/






Las clases han terminado y Greg está ansioso por pasar el mejor verano de su vida. Pero cuando su padre decide que lo que procede es estrechar el vínculo entre padre e hijo, Greg se ve obligado a hacer todo lo posible para impedir que le arruine las vacaciones. Así que Greg urde un plan, fingiendo tener un trabajo en un lujoso club de campo; pero ni siquiera eso evita que Greg pase durante ese verano unos días de perros, que incluyen embarazosos incidentes en una piscina pública y una acampada que sale terriblemente mal. Tercera entrega de la serie "El diario de Greg".
























La pelicula NO tiene ninguna marca... solo colocamos el nombre de esta web en las capturas






Código:
General
Format                                   : Matroska
Format version                           : Version 2
File size                                : 2.25 GiB
Duration                                 : 1h 33mn
Overall bit rate                         : 3 436 Kbps
Movie name                               : www.club-hd.com
Encoded date                             : UTC 2012-12-08 21:08:42
Writing application                      : mkvmerge v5.7.0 ('The Whirlwind') built on Jul  8 2012 20:08:51
Writing library                          : libebml v1.2.3 + libmatroska v1.3.0

Video
ID                                       : 1
Format                                   : AVC
Format/Info                              : Advanced Video Codec
Format profile                           : High@L4.1
Format settings, CABAC                   : Yes
Format settings, ReFrames                : 9 frames
Codec ID                                 : V_MPEG4/ISO/AVC
Duration                                 : 1h 33mn
Bit rate                                 : 2 604 Kbps
Width                                    : 1 280 pixels
Height                                   : 544 pixels
Display aspect ratio                     : 2.35:1
Frame rate mode                          : Constant
Frame rate                               : 23.976 fps
Color space                              : YUV
Chroma subsampling                       : 4:2:0
Bit depth                                : 8 bits
Scan type                                : Progressive
Bits/(Pixel*Frame)                       : 0.156
Stream size                              : 1.66 GiB (74%)
Title                                    : www.club-hd.com
Writing library                          : x264 core 129 r2230 1cffe9f
Language                                 : English
Default                                  : Yes
Forced                                   : No

Audio #1
ID                                       : 2
Format                                   : AC-3
Format/Info                              : Audio Coding 3
Mode extension                           : CM (complete main)
Format settings, Endianness              : Big
Codec ID                                 : A_AC3
Duration                                 : 1h 33mn
Bit rate mode                            : Constant
Bit rate                                 : 384 Kbps
Channel(s)                               : 6 channels
Channel positions                        : Front: L C R, Side: L R, LFE
Sampling rate                            : 48.0 KHz
Bit depth                                : 16 bits
Compression mode                         : Lossy
Delay relative to video                  : 1s 0ms
Stream size                              : 258 MiB (11%)
Title                                    : www.club-hd.com  >>  Latino
Language                                 : Spanish
Default                                  : Yes
Forced                                   : No

Audio #2
ID                                       : 3
Format                                   : AC-3
Format/Info                              : Audio Coding 3
Mode extension                           : CM (complete main)
Format settings, Endianness              : Big
Codec ID                                 : A_AC3
Duration                                 : 1h 33mn
Bit rate mode                            : Constant
Bit rate                                 : 448 Kbps
Channel(s)                               : 6 channels
Channel positions                        : Front: L C R, Side: L R, LFE
Sampling rate                            : 48.0 KHz
Bit depth                                : 16 bits
Compression mode                         : Lossy
Stream size                              : 301 MiB (13%)
Title                                    : www.club-hd.com  >>  Inglés
Language                                 : English
Default                                  : No
Forced                                   : No

Text #1
ID                                       : 4
Format                                   : UTF-8
Codec ID                                 : S_TEXT/UTF8
Codec ID/Info                            : UTF-8 Plain Text
Title                                    : Forzados
Language                                 : Spanish
Default                                  : Yes
Forced                                   : No

Text #2
ID                                       : 5
Format                                   : UTF-8
Codec ID                                 : S_TEXT/UTF8
Codec ID/Info                            : UTF-8 Plain Text
Language                                 : Spanish
Default                                  : No
Forced                                   : No

Text #3
ID                                       : 6
Format                                   : UTF-8
Codec ID                                 : S_TEXT/UTF8
Codec ID/Info                            : UTF-8 Plain Text
Language                                 : English
Default                                  : No
Forced                                   : No

Menu
00:00:00.000                             : en:Chapter 1
00:05:20.362                             : en:Chapter 2
00:06:30.724                             : en:Chapter 3
00:10:10.735                             : en:Chapter 4
00:12:05.391                             : en:Chapter 5
00:16:22.190                             : en:Chapter 6
00:20:44.201                             : en:Chapter 7
00:23:27.197                             : en:Chapter 8
00:27:53.463                             : en:Chapter 9
00:31:16.083                             : en:Chapter 10
00:36:40.573                             : en:Chapter 11
00:40:10.908                             : en:Chapter 12
00:43:41.953                             : en:Chapter 13
00:48:55.432                             : en:Chapter 14
00:52:15.716                             : en:Chapter 15
00:54:32.227                             : en:Chapter 16
00:59:13.091                             : en:Chapter 17
01:02:26.201                             : en:Chapter 18
01:05:31.719                             : en:Chapter 19
01:08:22.140                             : en:Chapter 20
01:12:35.142                             : en:Chapter 21
01:15:20.266                             : en:Chapter 22
01:21:57.329                             : en:Chapter 23
01:27:19.985                             : en:Chapter 24




Sin Contraseña | Simple Extracción





Links Intercambiables





Enlaces de Mega y Fireload solo disponibles para Miembros VIP

Compra tu Membresía VIP y apoya a Club-HD!

ATENCIÓN! Tenemos TODO el material de Club-HD disponible por Mega y Fireload, enlaces 100% activos y online hasta la fecha

Llévate tus cuentas Mega PRO II gratis con tu membresía VIP!
Todos los posts vivos con links de Mega y Fireload.
Todo el material de Club-HD desbloqueado y sin publicidad.

Click Aquí para más información.



Enlaces de Mega y Fireload solo disponibles para Miembros VIP

Compra tu Membresía VIP y apoya a Club-HD!

ATENCIÓN! Tenemos TODO el material de Club-HD disponible por Mega y Fireload, enlaces 100% activos y online hasta la fecha

Llévate tus cuentas Mega PRO II gratis con tu membresía VIP!
Todos los posts vivos con links de Mega y Fireload.
Todo el material de Club-HD desbloqueado y sin publicidad.

Click Aquí para más información.


Para ver este contenido oculto, debes dar click en una de las siguientes reacciones : Like Like, Love Love, Haha Haha, Wow Wow, Sad Sad, Angry Angry
 
Última edición:

Usuarios Que Están Viendo Este Tema (Total: 1, Miembros: 0, Invitados: 1)

Arriba