Die Hard II (1990) 1080p BDRip Dual Latino-Inglés [Subt. Esp] (Acción. Thriller)

Maestro Revolver

Well-known member
Miembro del Staff
Administrador
Registro
9 Ago 2012
Mensajes
3.567
Aporte Recuperado gracias a nuestro amigo clasaase







TÍTULO ORIGINAL: Die Hard II (Die Hard 2: Die Harder)
AÑO: 1990
DURACIÓN: 124 min.
PAÍS: USA
DIRECTOR: Renny Harlin
GUIÓN: Steven E. de Souza & Doug Richardson (Novela: Walter Wager)
REPARTO: Bruce Willis, Bonnie Bedelia, Franco Nero, Dennis Franz, William Atherton, Reginald Veljohnson, William Sadler, John Amos, Colm Meaney, Robert Patrick
PRODUCTORA: 20th Century Fox pr. una prod. Gordon Company / Silver Pictures. Productor: Joel Silver.
GÉNERO: Acción. Thriller | Secuela
: http://www.imdb.com/title/tt0099423/






Es Navidad. El teniente John McLane, de la policía de Los Ángeles, espera en el aeropuerto de Dulles, Washington, la llegada de su esposa. Mientras tanto, el coronel Stuart, un militar que ha sido expulsado del Congreso, organiza cerca de este aeropuerto con otros mercenarios profesionales una base de operaciones para liberar a un dictador sudamericano derrocado, al que se considera el mayor traficante del mundo. El dictador llegará en 58 minutos al aeropuerto de Dulles en calidad de preso político. El plan de Stuart consiste en impedir el aterrizaje de los demás aviones, que se ven así condenados a permanecer en el aire con el consiguiente riesgo de quedarse sin combustible. Exige, además un Boeing 747 para huir con el dictador previamente liberado. Pero McClane intentará frustrar sus planes...
























La pelicula NO tiene ninguna marca... solo colocamos el nombre de esta web en las capturas






Código:
General
Format                                   : Matroska
Format version                           : Version 2
File size                                : 4.67 GiB
Duration                                 : 2h 3mn
Overall bit rate                         : 5 417 Kbps
Movie name                               : www.club-hd.com
Encoded date                             : UTC 2013-05-19 19:56:44
Writing application                      : mkvmerge v5.7.0 ('The Whirlwind') built on Jul  8 2012 20:08:51
Writing library                          : libebml v1.2.3 + libmatroska v1.3.0

Video
ID                                       : 1
Format                                   : AVC
Format/Info                              : Advanced Video Codec
Format profile                           : Main@L4.0
Format settings, CABAC                   : Yes
Format settings, ReFrames                : 4 frames
Codec ID                                 : V_MPEG4/ISO/AVC
Duration                                 : 2h 3mn
Bit rate                                 : 4 221 Kbps
Nominal bit rate                         : 4 500 Kbps
Width                                    : 1 920 pixels
Height                                   : 812 pixels
Display aspect ratio                     : 2.35:1
Frame rate mode                          : Constant
Frame rate                               : 23.976 fps
Color space                              : YUV
Chroma subsampling                       : 4:2:0
Bit depth                                : 8 bits
Scan type                                : Progressive
Bits/(Pixel*Frame)                       : 0.113
Stream size                              : 3.64 GiB (78%)
Writing library                          : x264 core 112
Language                                 : English
Default                                  : Yes
Forced                                   : No
Color primaries                          : BT.709
Transfer characteristics                 : BT.709
Matrix coefficients                      : BT.709

Audio #1
ID                                       : 2
Format                                   : AC-3
Format/Info                              : Audio Coding 3
Mode extension                           : CM (complete main)
Format settings, Endianness              : Big
Codec ID                                 : A_AC3
Duration                                 : 2h 3mn
Bit rate mode                            : Constant
Bit rate                                 : 448 Kbps
Channel(s)                               : 6 channels
Channel positions                        : Front: L C R, Side: L R, LFE
Sampling rate                            : 48.0 KHz
Bit depth                                : 16 bits
Compression mode                         : Lossy
Stream size                              : 395 MiB (8%)
Title                                    : Latino
Language                                 : Spanish
Default                                  : Yes
Forced                                   : No

Audio #2
ID                                       : 3
Format                                   : AC-3
Format/Info                              : Audio Coding 3
Mode extension                           : CM (complete main)
Format settings, Endianness              : Big
Codec ID                                 : A_AC3
Duration                                 : 2h 3mn
Bit rate mode                            : Constant
Bit rate                                 : 640 Kbps
Channel(s)                               : 6 channels
Channel positions                        : Front: L C R, Side: L R, LFE
Sampling rate                            : 48.0 KHz
Bit depth                                : 16 bits
Compression mode                         : Lossy
Stream size                              : 565 MiB (12%)
Title                                    : Inglés
Language                                 : English
Default                                  : No
Forced                                   : No

Text
ID                                       : 4
Format                                   : UTF-8
Codec ID                                 : S_TEXT/UTF8
Codec ID/Info                            : UTF-8 Plain Text
Language                                 : Spanish
Default                                  : No
Forced                                   : No

Menu
00:00:00.000                             : :Chapter 1
00:07:00.000                             : :Chapter 2
00:14:00.000                             : :Chapter 3
00:21:00.000                             : :Chapter 4
00:28:00.000                             : :Chapter 5
00:35:00.000                             : :Chapter 6
00:42:00.000                             : :Chapter 7
00:49:00.000                             : :Chapter 8
00:56:00.000                             : :Chapter 9
01:03:00.000                             : :Chapter 10
01:10:00.000                             : :Chapter 11
01:17:00.000                             : :Chapter 12
01:24:00.000                             : :Chapter 13
01:31:00.000                             : :Chapter 14
01:38:00.000                             : :Chapter 15
01:45:00.000                             : :Chapter 16
01:52:00.000                             : :Chapter 17
01:59:00.000                             : :Chapter 18







Código:
www.club-hd.com[/CENTER]







Todos los links son Intercambiables!




Enlaces de Mega y Google Drive solo disponibles para Miembros VIP

Compra tu Membresía VIP y apoya a Club-HD!

ATENCIÓN! Tenemos TODO el material de Club-HD disponible por Mega y Google Drive, enlaces 100% activos y online hasta la fecha

Llévate tus cuentas Mega PRO III gratis con tu membresía VIP!
Todos los posts vivos con links de Mega y Google Drive.
Todo el material de Club-HD desbloqueado y sin publicidad.

Click Aquí para más información.



Para ver este contenido oculto, debes dar click en una de las siguientes reacciones : Like Like, Love Love, Haha Haha, Wow Wow, Sad Sad, Angry Angry



Para ver este contenido oculto, debes dar click en una de las siguientes reacciones : Like Like, Love Love, Haha Haha, Wow Wow, Sad Sad, Angry Angry
 
Última edición por un moderador:

elgrandario

Well-known member
Miembro VIP
Registro
29 Ago 2012
Mensajes
1.008
Ubicación
Lima, Perú
Re: Die Hard II (1990) m-1080p BDRip Dual Latino-Inglés [Subt. Esp] (Acción. Thriller)

muchísimo mejor que en la versión HD. Mucho mejor es el FULLL HD!
 

loco fena

New member
Registro
29 Ago 2012
Mensajes
346
Re: Die Hard II (1990) m-1080p BDRip Dual Latino-Inglés [Subt. Esp] (Acción. Thriller)

Desc_g_
 

sunker-123

New member
Registro
27 Ago 2012
Mensajes
2.427
Edad
31
Re: Die Hard II (1990) m-1080p BDRip Dual Latino-Inglés [Subt. Esp] (Acción. Thriller)

Mil gracias R21, me quedo con esta...:aplausos:
 

argentum5

New member
Registro
30 Ago 2012
Mensajes
448
Re: Die Hard II (1990) m-1080p BDRip Dual Latino-Inglés [Subt. Esp] (Acción. Thriller)

gracias
 

edward1080

Well-known member
Registro
23 Nov 2012
Mensajes
1.013
Edad
35
Re: Die Hard II (1990) m-1080p BDRip Dual Latino-Inglés [Subt. Esp] (Acción. Thriller)

Me llevo la coleccion en esta calidad , los m-1080 que siempre posteas son muy buenos!! :aplausos:
 

Ezze

Well-known member
Miembro del Staff
Súper Moderador
Miembro VIP
Registro
28 Ago 2012
Mensajes
1.666
Ubicación
En la Torre de Observación
Re: Die Hard II (1990) m-1080p BDRip Dual Latino-Inglés [Subt. Esp] (Acción. Thriller)

Excelente saga ;) Para coleccionarla en 1080, aunque sea en una versión micro. Eternamente gracias Revolver :dplgar: Saludos bye
 

Pedrum

The Buckminster
Registro
28 Ago 2012
Mensajes
1.092
Ubicación
Bahia Blanca
Re: Die Hard II (1990) m-1080p BDRip Dual Latino-Inglés [Subt. Esp] (Acción. Thriller)

:crcjd: :crcjd: :crcjd: la captura de la explosion es buenisima jajaj

Gracias locura! victory
 

freestyle

Member
Registro
29 Ago 2012
Mensajes
820
Re: Die Hard II (1990) m-1080p BDRip Dual Latino-Inglés [Subt. Esp] (Acción. Thriller)

Gracias!!!
 

Claudia

New member
Súper Moderador
Registro
28 Ago 2012
Mensajes
2.282
Edad
48
Ubicación
EN MI MUNDO REAL...
Re: Die Hard II (1990) m-1080p BDRip Dual Latino-Inglés [Subt. Esp] (Acción. Thriller)

Master, 1080. MUCHAS GRACIAS!!Pl4yb0y
 

Nosferatu

Well-known member
Súper Moderador
Registro
31 Ago 2012
Mensajes
2.274
Edad
45
Ubicación
Welcome to Hell!!
Re: Die Hard II (1990) m-1080p BDRip Dual Latino-Inglés [Subt. Esp] (Acción. Thriller)

Muchas gracias por esta excelente saga en m-1080p.:aplausos::aplausos::aplausos:

Gracias monstruo R21!!:aplausos::LXR::LXR:
 

feloski

Member
Registro
1 Sep 2012
Mensajes
206
Edad
53
Re: Die Hard II (1990) m-1080p BDRip Dual Latino-Inglés [Subt. Esp] (Acción. Thriller)

muchas graciasd
 

LAPICADERA

Well-known member
Registro
28 Ago 2012
Mensajes
4.727
Edad
39
Re: Die Hard II (1990) m-1080p BDRip Dual Latino-Inglés [Subt. Esp] (Acción. Thriller)

gracias
 

goku69

Member
Registro
1 Nov 2012
Mensajes
213
Edad
42
Re: Die Hard II (1990) m-1080p BDRip Dual Latino-Inglés [Subt. Esp] (Acción. Thriller)

Gracias!!!!!!!!!!
 

morlokw

Member
Registro
28 Ago 2012
Mensajes
500
Re: Die Hard II (1990) m-1080p BDRip Dual Latino-Inglés [Subt. Esp] (Acción. Thriller)

gracias R21
 

moyin

Active member
Registro
30 Ago 2012
Mensajes
1.620
Re: Die Hard II (1990) m-1080p BDRip Dual Latino-Inglés [Subt. Esp] (Acción. Thriller)

Gracias!!!!
 

Usuarios Que Están Viendo Este Tema (Total: 1, Miembros: 0, Invitados: 1)

Quién Leyó Este Tema (Total Miembros: 2)

Arriba