Die Hard with a Vengeance (1995) 1080p BDRip Dual Latino-Inglés [Subt. Esp] (Acción. Thriller)

Maestro Revolver

Administrador
Registro
9 Ago 2012
Mensajes
3.157
Reacciones (ptje)
55.042

DieHard3-1080p.jpg




FichaTecnica.jpg


TÍTULO ORIGINAL: Die Hard with a Vengeance
AÑO: 1995
DURACIÓN: 130 min.
PAÍS: USA
DIRECTOR: John McTiernan
GUIÓN: Jonathan Hensleigh
REPARTO: Bruce Willis, Samuel L. Jackson, Jeremy Irons, Graham Greene, Colleen Camp, Larry Bryggman
PRODUCTORA: 20th Century Fox. Productor: Joel Silver
GÉNERO: Acción. Thriller | Secuela. Terrorismo
imdb-logo.png
: http://www.imdb.com/title/tt0112864/




Sinopsis.jpg


Un hombre que se llama a sí mismo "Simon" siembra el pánico en las calles de Nueva York haciendo explotar una serie de bombas y asegura que no dejará de hacerlo a menos que el agente John McClane acceda a jugar con él a un juego llamado "Simón dice". Con la ayuda de Zeus, un electricista de Harlem, el agente comienza una trepidante carrera para resolver las adivinanzas planteadas por el terrorista y, al mismo tiempo, para averiguar sus intenciones.




Trailer.jpg






Capturas.jpg


1.jpg


2.jpg


3.jpg


4.jpg


5.jpg


6.jpg


La pelicula NO tiene ninguna marca... solo colocamos el nombre de esta web en las capturas




MediaInfo.jpg


Código:
General
Complete name                            : Die Hard with a Vengeance (1995) 1080p BDRip Dual Latino-Inglés [Subt. Esp].mkv
Format                                   : Matroska
Format version                           : Version 4 / Version 2
File size                                : 8.74 GiB
Duration                                 : 2h 12mn
Overall bit rate                         : 9 431 Kbps
Movie name                               : www.club-hd.com --> Die Hard with a Vengeance (1995) 1080p BDRip Dual Latino-Inglés [Subt. Esp]
Encoded date                             : UTC 2015-05-10 00:21:01
Writing application                      : mkvmerge v7.1.0 ('Good Love') 64bit built on Jul 27 2014 13:06:55
Writing library                          : libebml v1.3.0 + libmatroska v1.4.1

Video
ID                                       : 1
Format                                   : AVC
Format/Info                              : Advanced Video Codec
Format profile                           : [email protected]
Format settings, CABAC                   : Yes
Format settings, ReFrames                : 3 frames
Codec ID                                 : V_MPEG4/ISO/AVC
Duration                                 : 2h 12mn
Bit rate                                 : 7 100 Kbps
Width                                    : 1 920 pixels
Height                                   : 816 pixels
Display aspect ratio                     : 2.35:1
Frame rate mode                          : Constant
Frame rate                               : 23.976 fps
Color space                              : YUV
Chroma subsampling                       : 4:2:0
Bit depth                                : 8 bits
Scan type                                : Progressive
Bits/(Pixel*Frame)                       : 0.189
Stream size                              : 6.34 GiB (73%)
Title                                    : Die Hard with a Vengeance (1995) 1080p BDRip Dual Latino-Inglés [Subt. Esp]
Writing library                          : x264 core 142 r2431 ac76440
Language                                 : English
Default                                  : Yes
Forced                                   : No

Audio #1
ID                                       : 2
Format                                   : AC-3
Format/Info                              : Audio Coding 3
Mode extension                           : CM (complete main)
Format settings, Endianness              : Big
Codec ID                                 : A_AC3
Duration                                 : 2h 12mn
Bit rate mode                            : Constant
Bit rate                                 : 256 Kbps
Channel(s)                               : 2 channels
Channel positions                        : Front: L R
Sampling rate                            : 48.0 KHz
Bit depth                                : 16 bits
Compression mode                         : Lossy
Stream size                              : 243 MiB (3%)
Title                                    : Die Hard with a Vengeance (1995) - Español Latino AC3 2.0 - 256 Kbps
Language                                 : Spanish
Default                                  : Yes
Forced                                   : No

Audio #2
ID                                       : 3
Format                                   : AC-3
Format/Info                              : Audio Coding 3
Mode extension                           : CM (complete main)
Format settings, Endianness              : Big
Codec ID                                 : A_AC3
Duration                                 : 2h 12mn
Bit rate mode                            : Constant
Bit rate                                 : 640 Kbps
Channel(s)                               : 6 channels
Channel positions                        : Front: L C R, Side: L R, LFE
Sampling rate                            : 48.0 KHz
Bit depth                                : 16 bits
Compression mode                         : Lossy
Stream size                              : 608 MiB (7%)
Title                                    : Die Hard with a Vengeance (1995) - Inglés AC3 5.1 - 640 Kbps
Language                                 : English
Default                                  : No
Forced                                   : No

Audio #3
ID                                       : 4
Format                                   : DTS
Format/Info                              : Digital Theater Systems
Mode                                     : 16
Format settings, Endianness              : Big
Codec ID                                 : A_DTS
Duration                                 : 2h 12mn
Bit rate mode                            : Constant
Bit rate                                 : 1 509 Kbps
Channel(s)                               : 6 channels
Channel positions                        : Front: L C R, Side: L R, LFE
Sampling rate                            : 48.0 KHz
Bit depth                                : 24 bits
Compression mode                         : Lossy
Stream size                              : 1.40 GiB (16%)
Title                                    : Die Hard with a Vengeance (1995) - Inglés DTS 5.1 - 1509 Kbps
Language                                 : English
Default                                  : No
Forced                                   : No

Text
ID                                       : 5
Format                                   : UTF-8
Codec ID                                 : S_TEXT/UTF8
Codec ID/Info                            : UTF-8 Plain Text
Title                                    : Die Hard with a Vengeance (1995) - Subtítulos Español
Language                                 : Spanish
Default                                  : No
Forced                                   : No




CONTRASE%C3%91A-FINAL.png


Código:
www.club-hd.com




Descarga.jpg


MEGA.jpg

Tenemos TODO el material de Club-HD disponible por Mega, enlaces 100% activos y online hasta la fecha

Llévate tus cuentas Mega PRO III gratis con tu membresía VIP!
Todos los posts vivos con links de Mega.
Todo el material de Club-HD desbloqueado y sin publicidad.

Obtén más información sobre nuestras Membresías VIP



UPLOADED_BANNER.png

Para ver este contenido oculto, debes dar click en el botón"Like", o cualquiera de las otras reacciones:

Me Gusta Me Gusta, Me Encanta Me Encanta, Jaja Jaja, Wow Wow, Triste Triste, Molesto Molesto


OPENLOAD.png

Para ver este contenido oculto, debes dar click en el botón"Like", o cualquiera de las otras reacciones:

Me Gusta Me Gusta, Me Encanta Me Encanta, Jaja Jaja, Wow Wow, Triste Triste, Molesto Molesto
 
Última edición por un moderador:
Re: Die Hard with a Vengeance (1995) m-1080p BDRip Dual Latino-Inglés [Subt. Esp] (Acción. Thriller)

buenazo el gran mcclaine (o como se escriba :D)
 
Re: Die Hard with a Vengeance (1995) m-1080p BDRip Dual Latino-Inglés [Subt. Esp] (Acción. Thriller)

Que maravilla, genial, muchisimas gracias R21, me la llevo...:dplgar:
 
Re: Die Hard with a Vengeance (1995) m-1080p BDRip Dual Latino-Inglés [Subt. Esp] (Acción. Thriller)

descargar
 
Re: Die Hard with a Vengeance (1995) m-1080p BDRip Dual Latino-Inglés [Subt. Esp] (Acción. Thriller)

Gracias
 
Re: Die Hard with a Vengeance (1995) m-1080p BDRip Dual Latino-Inglés [Subt. Esp] (Acción. Thriller)

Excelente master!!! muchas gracias!!
 
Re: Die Hard with a Vengeance (1995) m-1080p BDRip Dual Latino-Inglés [Subt. Esp] (Acción. Thriller)

Excelencia pura de Willis. Muchísimas gracias Revolver por traernos una versión micro 1080 de una de las sagas más espectaculares de Acción. Saludos bye
 
Re: Die Hard with a Vengeance (1995) m-1080p BDRip Dual Latino-Inglés [Subt. Esp] (Acción. Thriller)

Gracias!!!!
 
Re: Die Hard with a Vengeance (1995) m-1080p BDRip Dual Latino-Inglés [Subt. Esp] (Acción. Thriller)

gracias
 
Re: Die Hard with a Vengeance (1995) m-1080p BDRip Dual Latino-Inglés [Subt. Esp] (Acción. Thriller)

....Nueva version, saga que lo vale. Muchas Gracias!!!:aplausos:
 
Re: Die Hard with a Vengeance (1995) m-1080p BDRip Dual Latino-Inglés [Subt. Esp] (Acción. Thriller)

Muchas gracias por esta excelente saga en m-1080p.:aplausos::aplausos::aplausos:

Gracias monstruo R21!!:aplausos::LXR::LXR:
 
Re: Die Hard with a Vengeance (1995) m-1080p BDRip Dual Latino-Inglés [Subt. Esp] (Acción. Thriller)

Desc_g_
 
Re: Die Hard with a Vengeance (1995) m-1080p BDRip Dual Latino-Inglés [Subt. Esp] (Acción. Thriller)

Gracias!!
 
Re: Die Hard with a Vengeance (1995) m-1080p BDRip Dual Latino-Inglés [Subt. Esp] (Acción. Thriller)

gracias
 
Re: Die Hard with a Vengeance (1995) m-1080p BDRip Dual Latino-Inglés [Subt. Esp] (Acción. Thriller)

Gracias!!!!!!!!!!
 
Re: Die Hard with a Vengeance (1995) m-1080p BDRip Dual Latino-Inglés [Subt. Esp] (Acción. Thriller)

Desc_g_
 
Re: Die Hard with a Vengeance (1995) m-1080p BDRip Dual Latino-Inglés [Subt. Esp] (Acción. Thriller)

gracias
 
Re: Die Hard with a Vengeance (1995) m-1080p BDRip Dual Latino-Inglés [Subt. Esp] (Acción. Thriller)

gracias!!!!!!!!!!!!!!
 
Re: Die Hard with a Vengeance (1995) m-1080p BDRip Dual Latino-Inglés [Subt. Esp] (Acción. Thriller)

Desc_g_
 
Re: Die Hard with a Vengeance (1995) m-1080p BDRip Dual Latino-Inglés [Subt. Esp] (Acción. Thriller)

Desc_g_
 
Volver