Dinosaur (2000) m-1080p Dual Latino-Inglés [Subt. Esp-ing] (Animación)

Maestro Revolver

Administrador
Registro
9 Ago 2012
Mensajes
3.157
Reacciones (ptje)
55.041

DINOSAUR.jpg



FICHA_TECNICA.png


TÍTULO ORIGINAL: Dinosaur
AÑO: 2000
DURACIÓN: 84 min.
PAÍS: USA
DIRECTOR: Eric Leighton, Ralph Zondag
GUIÓN: John Harrison, Robert Nelson Jacobs
REPARTO: Animation
PRODUCTORA: Walt Disney Pictures
GÉNERO: Animación. Aventuras. Infantil | Dinosaurios. Prehistoria
imdb-logo.png
http://www.imdb.com/title/tt0130623/



SINOPSIS.png


Prehistoria, hace 65 millones de años, al final del periodo cretáceo. Un iguanodonte de tres toneladas llamado Aladar se cría separado de los de su especie y crece en una isla paradisiaca al amparo de un clan de lémures. Cuando una devastadora lluvia de meteoritos provoca el caos en su pacífico mundo, Aladar pone rumbo a tierra firme y se une a un grupo de dinosaurios que buscan desesperadamente un lugar donde anidar en paz. Pero el agua y la comida empiezan a escasear, y los carnotaurios, sedientos de sangre fresca, representan un peligro constante. Es entonces cuando Aladar se ve obligado a desafiar el "orden establecido" y demuestra que saber adaptarse a cualquier situación es la mejor manera de sobrevivir.



TRAILER.png





CAPTURAS.png


1.jpg


2.jpg


3.jpg


4.jpg


5.jpg


6.jpg


La pelicula NO tiene ninguna marca... solo colocamos el nombre de esta web en las capturas



DATOS_TECNICOS.png


Código:
General
Format                           : Matroska
Format version                   : Version 2
File size                        : 3.21 GiB
Duration                         : 1h 21mn
Overall bit rate                 : 5 601 Kbps
Movie name                       : www.club-hd.com
Encoded date                     : UTC 2012-11-02 23:00:26
Writing application              : mkvmerge v5.7.0 ('The Whirlwind') built on Jul  8 2012 20:08:51
Writing library                  : libebml v1.2.3 + libmatroska v1.3.0

Video
ID                               : 1
Format                           : AVC
Format/Info                      : Advanced Video Codec
Format profile                   : [email protected]
Format settings, CABAC           : Yes
Format settings, ReFrames        : 4 frames
Codec ID                         : V_MPEG4/ISO/AVC
Duration                         : 1h 21mn
Bit rate                         : 4 600 Kbps
Width                            : 1 920 pixels
Height                           : 1 040 pixels
Display aspect ratio             : 16:9
Frame rate                       : 23.976 fps
Color space                      : YUV
Chroma subsampling               : 4:2:0
Bit depth                        : 8 bits
Scan type                        : Progressive
Bits/(Pixel*Frame)               : 0.096
Stream size                      : 2.52 GiB (79%)
Title                            : www.club-hd.com
Writing library                  : x264 core 112
Language                         : English
Default                          : Yes
Forced                           : No
Color primaries                  : BT.709-5, BT.1361, IEC 61966-2-4, SMPTE RP177
Transfer characteristics         : BT.709-5, BT.1361
Matrix coefficients              : BT.709-5, BT.1361, IEC 61966-2-4 709, SMPTE RP177

Audio #1
ID                               : 2
Format                           : AC-3
Format/Info                      : Audio Coding 3
Mode extension                   : CM (complete main)
Codec ID                         : A_AC3
Duration                         : 1h 21mn
Bit rate mode                    : Constant
Bit rate                         : 448 Kbps
Channel(s)                       : 6 channels
Channel positions                : Front: L C R, Side: L R, LFE
Sampling rate                    : 48.0 KHz
Bit depth                        : 16 bits
Compression mode                 : Lossy
Stream size                      : 263 MiB (8%)
Title                            : www.club-hd.com  >>  Latino
Language                         : Spanish
Default                          : Yes
Forced                           : No

Audio #2
ID                               : 3
Format                           : AC-3
Format/Info                      : Audio Coding 3
Mode extension                   : CM (complete main)
Codec ID                         : A_AC3
Duration                         : 1h 21mn
Bit rate mode                    : Constant
Bit rate                         : 640 Kbps
Channel(s)                       : 6 channels
Channel positions                : Front: L C R, Side: L R, LFE
Sampling rate                    : 48.0 KHz
Bit depth                        : 16 bits
Compression mode                 : Lossy
Stream size                      : 375 MiB (11%)
Title                            : www.club-hd.com  >>  Inglés
Language                         : English
Default                          : No
Forced                           : No

Text #1
ID                               : 4
Format                           : UTF-8
Codec ID                         : S_TEXT/UTF8
Codec ID/Info                    : UTF-8 Plain Text
Language                         : Spanish
Default                          : No
Forced                           : No

Text #2
ID                               : 5
Format                           : UTF-8
Codec ID                         : S_TEXT/UTF8
Codec ID/Info                    : UTF-8 Plain Text
Language                         : English
Default                          : No
Forced                           : No

Menu
00:00:00.000                     : en:Chapter 1
00:04:24.138                     : en:Chapter 2
00:07:04.173                     : en:Chapter 3
00:10:47.146                     : en:Chapter 4
00:13:08.537                     : en:Chapter 5
00:16:58.350                     : en:Chapter 6
00:20:44.785                     : en:Chapter 7
00:23:14.434                     : en:Chapter 8
00:25:13.428                     : en:Chapter 9
00:27:08.793                     : en:Chapter 10
00:31:40.899                     : en:Chapter 11
00:33:29.215                     : en:Chapter 12
00:36:24.682                     : en:Chapter 13
00:38:29.348                     : en:Chapter 14
00:41:18.476                     : en:Chapter 15
00:41:59.391                     : en:Chapter 16
00:45:10.457                     : en:Chapter 17
00:47:48.365                     : en:Chapter 18
00:53:15.817                     : en:Chapter 19
00:57:06.423                     : en:Chapter 20
00:59:56.259                     : en:Chapter 21
01:02:48.931                     : en:Chapter 22
01:05:10.823                     : en:Chapter 23
01:08:08.626                     : en:Chapter 24
01:09:59.069                     : en:Chapter 25
01:12:25.132                     : en:Chapter 26
01:15:39.159                     : en:Chapter 27
01:21:58.914                     : en:Chapter 28



Descarga.png



MEGA.jpg

Tenemos TODO el material de Club-HD disponible por Mega, enlaces 100% activos y online hasta la fecha

Llévate tus cuentas Mega PRO III gratis con tu membresía VIP!
Todos los posts vivos con links de Mega.
Todo el material de Club-HD desbloqueado y sin publicidad.

Obtén más información sobre nuestras Membresías VIP


UPLOADED.TO_BANNER.png

Para ver este contenido oculto, debes dar click en el botón"Like", o cualquiera de las otras reacciones:

Me Gusta Me Gusta, Me Encanta Me Encanta, Jaja Jaja, Wow Wow, Triste Triste, Molesto Molesto

google-drive.png

Para ver este contenido oculto, debes dar click en el botón"Like", o cualquiera de las otras reacciones:

Me Gusta Me Gusta, Me Encanta Me Encanta, Jaja Jaja, Wow Wow, Triste Triste, Molesto Molesto
 
Última edición por un moderador:
esta bestia no descansa , gracias querido revolver21 !!!!
 
Gran película maestro revolver y mas aun en hd :D

se agradece el aporte :dplgar: aunque ya no soy tan niño igual la vere ya que esta película marco un poco mi infancia gracias

saludos master
 
Última edición:
Muchos recuerdos de esta película Maestro.:aplausos:

GRACIAS R21! :LXR::aplausos:
 
excelente pelicula para excelente resolucion, la descargare para mis sobrinos, gracias revolver
 
Muchas gracias R21 por traernos siempre grandes aportes como este te deseo a ti y a todos los que conforman ClubHD siempre lo mejor.
 
Volver