Django Unchained (2012) 1080p BDRip Dual Latino-Inglés [Subt. Esp] (Western. Acción)

Maestro Revolver

Well-known member
Miembro del Staff
Administrador
Registro
9 Ago 2012
Mensajes
3.569
Reacciones
59.361
Puntos
113

Reputation:









TÍTULO ORIGINAL: Django Unchained
AÑO: 2012
DURACIÓN: 165 min.
PAÍS: USA
DIRECTOR: Quentin Tarantino
GUIÓN: Quentin Tarantino
REPARTO: Jamie Foxx, Christoph Waltz, Leonardo DiCaprio, Kerry Washington, Samuel L. Jackson, Don Johnson, Walton Goggins, James Remar, Dennis Christopher, Michael Parks, Bruce Dern, Franco Nero, Nichole Galicia, Jonah Hill, Tom Savini, M.C. Gainey, RZA, Todd Allen, James Russo, Tom Wopat, Misty Upham, Gerald McRaney, Cooper Huckabee, Laura Cayouette, Amber Tamblyn, David Steen, Zoe Bell, Michael Bowen, Robert Carradine, Quentin Tarantino
PRODUCTORA: Sony Pictures / The Weinstein Company
GÉNERO: Western. Acción. Comedia | Drama sureño. Esclavitud. Racismo. Spaghetti Western. Siglo XIX
: http://www.imdb.com/title/tt1853728/

PREMIOS: 2012: 2 Oscars: mejor guión original y actor secundario (Waltz). 5 nominaciones
2012: 2 Globos de Oro: Mejor guión y actor secundario (Waltz). 5 nominaciones
2012: Critics Choice Awards: Mejor guión original. Nominada a mejor película
2012: 2 Premios BAFTA: Mejor guión y actor secundario (Waltz). 5 nominaciones
2012: National Board of Review (NBR): 10 mejores films y mejor actor sec. (Dicaprio)
2012: Asociación de Críticos de Los Angeles: 2º puesto para mejor actor sec. (Waltz)
2012: American Film Institute: Top 10 - Mejores películas del año






En Texas, dos años antes de estallar la Guerra Civil Americana, King Schultz (Christoph Waltz), un cazarecompensas alemán que le sigue la pista a unos asesinos para cobrar por sus cabezas, le promete al esclavo negro Django (Jamie Foxx) dejarlo en libertad si le ayuda a atraparlos. Él acepta pues luego quiere ir a buscar a su esposa Broomhilda (Kerry Washington), una esclava que están en una plantación del terrateniente Calvin Candie (Leonardo DiCaprio).
























La pelicula NO tiene ninguna marca... solo colocamos el nombre de esta web en las capturas






Código:
General
Format                                   : Matroska
Format version                           : Version 2
File size                                : 13.3 GiB
Duration                                 : 2h 45mn
Overall bit rate                         : 11.5 Mbps
Movie name                               : www.club-hd.com
Encoded date                             : UTC 2013-03-27 23:22:33
Writing application                      : mkvmerge v5.7.0 ('The Whirlwind') built on Jul  8 2012 20:08:51
Writing library                          : libebml v1.2.3 + libmatroska v1.3.0

Video
ID                                       : 1
Format                                   : AVC
Format/Info                              : Advanced Video Codec
Format profile                           : High@L4.1
Format settings, CABAC                   : Yes
Format settings, ReFrames                : 5 frames
Codec ID                                 : V_MPEG4/ISO/AVC
Duration                                 : 2h 45mn
Bit rate                                 : 8 900 Kbps
Width                                    : 1 920 pixels
Height                                   : 800 pixels
Display aspect ratio                     : 2.40:1
Frame rate mode                          : Constant
Frame rate                               : 23.976 fps
Color space                              : YUV
Chroma subsampling                       : 4:2:0
Bit depth                                : 8 bits
Scan type                                : Progressive
Bits/(Pixel*Frame)                       : 0.242
Stream size                              : 10.0 GiB (75%)
Title                                    : www.club-hd.com
Writing library                          : x264 core 130 r2273 b3065e6
Language                                 : English
Default                                  : Yes
Forced                                   : No

Audio #1
ID                                       : 2
Format                                   : AC-3
Format/Info                              : Audio Coding 3
Mode extension                           : CM (complete main)
Format settings, Endianness              : Big
Codec ID                                 : A_AC3
Duration                                 : 2h 45mn
Bit rate mode                            : Constant
Bit rate                                 : 448 Kbps
Channel(s)                               : 6 channels
Channel positions                        : Front: L C R, Side: L R, LFE
Sampling rate                            : 48.0 KHz
Bit depth                                : 16 bits
Compression mode                         : Lossy
Stream size                              : 530 MiB (4%)
Title                                    : www.club-hd.com  >>  Latino AC3 5.1
Language                                 : Spanish
Default                                  : Yes
Forced                                   : No

Audio #2
ID                                       : 3
Format                                   : AC-3
Format/Info                              : Audio Coding 3
Mode extension                           : CM (complete main)
Format settings, Endianness              : Big
Codec ID                                 : A_AC3
Duration                                 : 2h 45mn
Bit rate mode                            : Constant
Bit rate                                 : 640 Kbps
Channel(s)                               : 6 channels
Channel positions                        : Front: L C R, Side: L R, LFE
Sampling rate                            : 48.0 KHz
Bit depth                                : 16 bits
Compression mode                         : Lossy
Stream size                              : 757 MiB (6%)
Title                                    : www.club-hd.com  >>  Inglés AC3 5.1
Language                                 : English
Default                                  : No
Forced                                   : No

Audio #3
ID                                       : 4
Format                                   : DTS
Format/Info                              : Digital Theater Systems
Mode                                     : 16
Format settings, Endianness              : Big
Codec ID                                 : A_DTS
Duration                                 : 2h 45mn
Bit rate mode                            : Constant
Bit rate                                 : 1 509 Kbps
Channel(s)                               : 6 channels
Channel positions                        : Front: L C R, Side: L R, LFE
Sampling rate                            : 48.0 KHz
Bit depth                                : 24 bits
Compression mode                         : Lossy
Delay relative to video                  : 11ms
Stream size                              : 1.74 GiB (13%)
Title                                    : www.club-hd.com  >>  Inglés DTS 5.1
Language                                 : English
Default                                  : No
Forced                                   : No

Text
ID                                       : 5
Format                                   : UTF-8
Codec ID                                 : S_TEXT/UTF8
Codec ID/Info                            : UTF-8 Plain Text
Language                                 : Spanish
Default                                  : No
Forced                                   : No

Menu
00:00:00.000                             : en:00:00:00.000
00:03:36.466                             : en:00:03:36.466
00:12:47.934                             : en:00:12:47.934
00:18:49.420                             : en:00:18:49.420
00:26:48.273                             : en:00:26:48.273
00:31:44.528                             : en:00:31:44.528
00:40:27.133                             : en:00:40:27.133
00:46:05.513                             : en:00:46:05.513
00:52:36.862                             : en:00:52:36.862
00:58:12.823                             : en:00:58:12.823
01:02:20.320                             : en:01:02:20.320
01:12:13.496                             : en:01:12:13.496
01:18:35.794                             : en:01:18:35.794
01:26:08.038                             : en:01:26:08.038
01:34:49.642                             : en:01:34:49.642
01:40:52.380                             : en:01:40:52.380
01:45:34.036                             : en:01:45:34.036
01:50:01.094                             : en:01:50:01.094
01:55:03.980                             : en:01:55:03.980
02:03:54.969                             : en:02:03:54.969
02:08:14.103                             : en:02:08:14.103
02:14:14.380                             : en:02:14:14.380
02:17:28.991                             : en:02:17:28.991
02:22:32.544                             : en:02:22:32.544
02:26:28.530                             : en:02:26:28.530
02:33:00.463                             : en:02:33:00.463
02:35:41.999                             : en:02:35:41.999
02:41:30.931                             : en:02:41:30.931










Enlaces de Mega y Fireload solo disponibles para Miembros VIP

Compra tu Membresía VIP y apoya a Club-HD!

ATENCIÓN! Tenemos TODO el material de Club-HD disponible por Mega y Fireload, enlaces 100% activos y online hasta la fecha

Llévate tus cuentas Mega PRO II gratis con tu membresía VIP!
Todos los posts vivos con links de Mega y Fireload.
Todo el material de Club-HD desbloqueado y sin publicidad.

Click Aquí para más información.





Enlaces de Mega y Fireload solo disponibles para Miembros VIP

Compra tu Membresía VIP y apoya a Club-HD!

ATENCIÓN! Tenemos TODO el material de Club-HD disponible por Mega y Fireload, enlaces 100% activos y online hasta la fecha

Llévate tus cuentas Mega PRO II gratis con tu membresía VIP!
Todos los posts vivos con links de Mega y Fireload.
Todo el material de Club-HD desbloqueado y sin publicidad.

Click Aquí para más información.



Enlaces de Mega y Fireload solo disponibles para Miembros VIP

Compra tu Membresía VIP y apoya a Club-HD!

ATENCIÓN! Tenemos TODO el material de Club-HD disponible por Mega y Fireload, enlaces 100% activos y online hasta la fecha

Llévate tus cuentas Mega PRO II gratis con tu membresía VIP!
Todos los posts vivos con links de Mega y Fireload.
Todo el material de Club-HD desbloqueado y sin publicidad.

Click Aquí para más información.


Para ver este contenido oculto, debes dar click en una de las siguientes reacciones : Like Like, Love Love, Haha Haha, Wow Wow, Sad Sad, Angry Angry
 
Última edición:

zacygal

Well-known member
Registro
3 Sep 2012
Mensajes
1.515
Reacciones
1.536
Puntos
113
Edad
49

Reputation:

X el cumple de Tarantino en Dual sos lo máximo Revolver ...


:LXR::LXR::LXR::LXR::LXR::LXR:
 

battrock

New member
Registro
27 Ago 2012
Mensajes
110
Reacciones
13
Puntos
0

Reputation:

omfg :O la película que más he esperado desde que fue anunciada muchas gracias y mucho ánimo por los problemas que tuvieron con el host
 

paolo82

New member
Registro
27 Ago 2012
Mensajes
361
Reacciones
8
Puntos
0

Reputation:

Grande la estaba esperando muchas graciasss...
 

nell777

New member
Registro
28 Ago 2012
Mensajes
64
Reacciones
1
Puntos
0
Edad
41

Reputation:

muchas gracias
 
Última edición por un moderador:

Usuarios Que Están Viendo Este Tema (Total: 1, Miembros: 0, Invitados: 1)

Arriba