Don Jon (2013) 720p RC BDRip Audio Inglés [Subt. Esp] (Comedia)

Maestro Revolver

Miembro del Staff
Administrador
Registro
9 Ago 2012
Mensajes
3.157








TÍTULO ORIGINAL: Don Jon (AKA Don Jon's Addiction)
AÑO: 2013
DURACIÓN: 88 min.
PAÍS: USA
DIRECTOR: Joseph Gordon-Levitt
GUIÓN: Joseph Gordon-Levitt
REPARTO: Joseph Gordon-Levitt, Scarlett Johansson, Julianne Moore, Tony Danza, Glenne Headly, Rob Brown, Brie Larson, Jeremy Luke, Italia Ricci, Amanda Perez, Lindsey Broad, Sarah Dumont, Sloane Avery, Eva Mah, Loanne Bishop
PRODUCTORA: Relativity Media / Voltage Pictures / Ram Bergman Productions
GÉNERO: Comedia | Comedia romántica
: http://www.imdb.com/title/tt2229499/

Premios: 2013: Premios Gotham: Nominada a Mejor actriz (Scarlett Johansson)
2013: Independent Spirit Awards: Nominada a Mejor guión novel





Jon Martello (Joseph Gordon-Levitt), un joven adicto al sexo en general y al porno en particular, intenta ejercer algún tipo de control sobre sí mismo. Jon tiende a deshumanizarlo todo: su apartamento, su coche, su familia, su iglesia y las mujeres. Sin embargo, hasta los ligues más sofisticados no pueden compararse con el placer que obtiene viendo pornografía en su ordenador. Insatisfecho con su vida, decide cambiar. Gracias a la relación con dos mujeres muy distintas, Barbara (Scarlett Johansson) y Esther (Julianne Moore), aprenderá grandes lecciones sobre la vida y el amor.
























La pelicula NO tiene ninguna marca... solo colocamos el nombre de esta web en las capturas






Código:
General
Format version                           : Version 2
File size                                : 4.63 GiB
Duration                                 : 1h 26mn
Overall bit rate                         : 7 689 Kbps
Movie name                               : www.club-hd.com
Encoded date                             : UTC 2013-12-18 22:49:59
Writing application                      : mkvmerge v5.7.0 ('The Whirlwind') built on Jul  8 2012 20:08:51
Writing library                          : libebml v1.2.3 + libmatroska v1.3.0

Video
ID                                       : 1
Format                                   : AVC
Format/Info                              : Advanced Video Codec
Format profile                           : High@L4.1
Format settings, CABAC                   : Yes
Format settings, ReFrames                : 12 frames
Codec ID                                 : V_MPEG4/ISO/AVC
Duration                                 : 1h 26mn
Bit rate                                 : 7 152 Kbps
Nominal bit rate                         : 7 600 Kbps
Width                                    : 1 280 pixels
Height                                   : 536 pixels
Display aspect ratio                     : 2.40:1
Frame rate mode                          : Constant
Frame rate                               : 25.000 fps
Color space                              : YUV
Chroma subsampling                       : 4:2:0
Bit depth                                : 8 bits
Scan type                                : Progressive
Bits/(Pixel*Frame)                       : 0.417
Stream size                              : 4.31 GiB (93%)
Title                                    : www.club-hd.com
Writing library                          : x264 core 120 r2164 da19765
Language                                 : English
Default                                  : Yes
Forced                                   : No

Audio
ID                                       : 2
Format                                   : AC-3
Format/Info                              : Audio Coding 3
Mode extension                           : CM (complete main)
Format settings, Endianness              : Big
Codec ID                                 : A_AC3
Duration                                 : 1h 26mn
Bit rate mode                            : Constant
Bit rate                                 : 384 Kbps
Channel(s)                               : 6 channels
Channel positions                        : Front: L C R, Side: L R, LFE
Sampling rate                            : 48.0 KHz
Bit depth                                : 16 bits
Compression mode                         : Lossy
Stream size                              : 237 MiB (5%)
Title                                    : www.club-hd.com
Language                                 : English
Default                                  : Yes
Forced                                   : No

Text
ID                                       : 3
Format                                   : UTF-8
Codec ID                                 : S_TEXT/UTF8
Codec ID/Info                            : UTF-8 Plain Text
Language                                 : Spanish
Default                                  : Yes
Forced                                   : No








Enlaces de Mega y Google Drive solo disponibles para Miembros VIP

Compra tu Membresía VIP y apoya a Club-HD!

ATENCIÓN! Tenemos TODO el material de Club-HD disponible por Mega y Google Drive, enlaces 100% activos y online hasta la fecha

Llévate tus cuentas Mega PRO III gratis con tu membresía VIP!
Todos los posts vivos con links de Mega y Google Drive.
Todo el material de Club-HD desbloqueado y sin publicidad.

Click Aquí para más información.



Para ver este contenido oculto, debes dar click en una de las siguientes reacciones : Like Like, Love Love, Haha Haha, Wow Wow, Sad Sad, Angry Angry

 
Última edición por un moderador:

Usuarios Que Están Viendo Este Tema (Total: 1, Miembros: 0, Invitados: 1)

Quién Leyó Este Tema (Total Miembros: 2)

Arriba