Drag Me To Hell (2009) m-1080p Dual Latino-Inglés [Subt. Esp] (Terror. Thriller)

Maestro Revolver

Well-known member
Miembro del Staff
Administrador
Registro
9 Ago 2012
Mensajes
3.569
Reacciones
59.346
Puntos
113

Reputation:









TÍTULO ORIGINAL: Drag Me To Hell
AÑO: 2009
DURACIÓN: 96 min.
PAÍS: USA
DIRECTOR: Sam Raimi
GUIÓN: Sam Raimi, Ivan Raimi
REPARTO: Alison Lohman, Justin Long, Lorna Raver, David Paymer, Dileep Rao, Reggie Lee, Adriana Barraza, Bojana Novakovic
PRODUCTORA: Universal Pictures / Ghost House Pictures / Mandate Pictures
GÉNERO: Terror. Thriller | Comedia de terror. Comedia negra. Posesiones/Exorcismos
: http://www.imdb.com/title/tt1127180/






La joven Christine Brown (Alison Lohman), ambiciosa apoderada de un banco de Los Ángeles, sale con un hombre encantador, el profesor Clay Dalton (Justin Long). El trabajo de Christine consiste en conceder préstamos hipotecarios. Un día la señora Ganush, una misteriosa anciana (Lorna Raver), va al banco para pedirle una moratoria, pero Christine se la niega, y la señora Ganush pierde su casa. La anciana decide entonces vengarse lanzándole una maldición que convierte su vida en un infierno. Ante la incomprensión de su escéptico novio, Christine busca la ayuda de un vidente (Dileep Rao) para salvar su alma de una condenación eterna. Intentando ayudarla a recobrar una vida normal, el vidente la guía en una frenética carrera para conjurar el hechizo. Pero las fuerzas del mal se acercan y Christine debe enfrentarse a algo impensable.
























La pelicula NO tiene ninguna marca... solo colocamos el nombre de esta web en las capturas






Código:
General
Format                                   : Matroska
Format version                           : Version 2
File size                                : 2.52 GiB
Duration                                 : 1h 39mn
Overall bit rate                         : 3 645 Kbps
Movie name                               : www.club-hd.com
Encoded date                             : UTC 2013-04-05 01:12:07
Writing application                      : mkvmerge v5.7.0 ('The Whirlwind') built on Jul  8 2012 20:08:51
Writing library                          : libebml v1.2.3 + libmatroska v1.3.0

Video
ID                                       : 1
Format                                   : AVC
Format/Info                              : Advanced Video Codec
Format profile                           : Main@L4.0
Format settings, CABAC                   : Yes
Format settings, ReFrames                : 4 frames
Codec ID                                 : V_MPEG4/ISO/AVC
Duration                                 : 1h 39mn
Bit rate                                 : 2 293 Kbps
Width                                    : 1 920 pixels
Height                                   : 800 pixels
Display aspect ratio                     : 2.40:1
Frame rate mode                          : Constant
Frame rate                               : 23.976 fps
Color space                              : YUV
Chroma subsampling                       : 4:2:0
Bit depth                                : 8 bits
Scan type                                : Progressive
Bits/(Pixel*Frame)                       : 0.062
Stream size                              : 1.59 GiB (63%)
Title                                    : www.club-hd.com
Writing library                          : x264 core 112
Language                                 : English
Default                                  : Yes
Forced                                   : No
Color primaries                          : BT.709
Transfer characteristics                 : BT.709
Matrix coefficients                      : BT.709

Audio #1
ID                                       : 2
Format                                   : AC-3
Format/Info                              : Audio Coding 3
Mode extension                           : CM (complete main)
Format settings, Endianness              : Big
Codec ID                                 : A_AC3
Duration                                 : 1h 39mn
Bit rate mode                            : Constant
Bit rate                                 : 640 Kbps
Channel(s)                               : 6 channels
Channel positions                        : Front: L C R, Side: L R, LFE
Sampling rate                            : 48.0 KHz
Bit depth                                : 16 bits
Compression mode                         : Lossy
Stream size                              : 454 MiB (18%)
Title                                    : www.club-hd.com  >>  Latino
Language                                 : Spanish
Default                                  : Yes
Forced                                   : No

Audio #2
ID                                       : 3
Format                                   : AC-3
Format/Info                              : Audio Coding 3
Mode extension                           : CM (complete main)
Format settings, Endianness              : Big
Codec ID                                 : A_AC3
Duration                                 : 1h 39mn
Bit rate mode                            : Constant
Bit rate                                 : 640 Kbps
Channel(s)                               : 6 channels
Channel positions                        : Front: L C R, Side: L R, LFE
Sampling rate                            : 48.0 KHz
Bit depth                                : 16 bits
Compression mode                         : Lossy
Stream size                              : 454 MiB (18%)
Title                                    : www.club-hd.com  >>  Inglés
Language                                 : English
Default                                  : No
Forced                                   : No

Text
ID                                       : 4
Format                                   : UTF-8
Codec ID                                 : S_TEXT/UTF8
Codec ID/Info                            : UTF-8 Plain Text
Language                                 : Spanish
Default                                  : No
Forced                                   : No

Menu
00:00:00.000                             : en:Chapter 1
00:03:21.784                             : en:Chapter 2
00:05:39.589                             : en:Chapter 3
00:07:55.766                             : en:Chapter 4
00:09:55.511                             : en:Chapter 5
00:10:41.641                             : en:Chapter 6
00:14:15.312                             : en:Chapter 7
00:16:05.589                             : en:Chapter 8
00:16:39.915                             : en:Chapter 9
00:18:20.808                             : en:Chapter 10
00:19:32.171                             : en:Chapter 11
00:20:49.539                             : en:Chapter 12
00:22:36.813                             : en:Chapter 13
00:24:23.253                             : en:Chapter 14
00:26:31.881                             : en:Chapter 15
00:30:12.894                             : en:Chapter 16
00:33:51.821                             : en:Chapter 17
00:35:48.771                             : en:Chapter 18
00:38:10.454                             : en:Chapter 19
00:40:03.776                             : en:Chapter 20
00:40:38.561                             : en:Chapter 21
00:42:48.232                             : en:Chapter 22
00:44:29.500                             : en:Chapter 23
00:45:48.746                             : en:Chapter 24
00:49:34.721                             : en:Chapter 25
00:51:34.800                             : en:Chapter 26
00:56:26.883                             : en:Chapter 27
00:59:12.966                             : en:Chapter 28
01:00:21.242                             : en:Chapter 29
01:02:01.884                             : en:Chapter 30
01:02:36.419                             : en:Chapter 31
01:04:58.394                             : en:Chapter 32
01:07:03.519                             : en:Chapter 33
01:10:55.376                             : en:Chapter 34
01:13:34.743                             : en:Chapter 35
01:18:13.689                             : en:Chapter 36
01:19:57.959                             : en:Chapter 37
01:21:39.060                             : en:Chapter 38
01:25:47.142                             : en:Chapter 39
01:26:44.365                             : en:Chapter 40
01:29:59.310                             : en:Chapter 41
01:32:47.019                             : en:Chapter 42
01:34:10.645                             : en:Chapter 43








Enlaces de Mega y Fireload solo disponibles para Miembros VIP

Compra tu Membresía VIP y apoya a Club-HD!

ATENCIÓN! Tenemos TODO el material de Club-HD disponible por Mega y Fireload, enlaces 100% activos y online hasta la fecha

Llévate tus cuentas Mega PRO II gratis con tu membresía VIP!
Todos los posts vivos con links de Mega y Fireload.
Todo el material de Club-HD desbloqueado y sin publicidad.

Click Aquí para más información.



Para ver este contenido oculto, debes dar click en una de las siguientes reacciones : Like Like, Love Love, Haha Haha, Wow Wow, Sad Sad, Angry Angry

 
Última edición por un moderador:

edward1080

Well-known member
Registro
23 Nov 2012
Mensajes
1.013
Reacciones
137
Puntos
63
Edad
34

Reputation:

En su tiempo solo vi el trailer de esta película y se veía escalofriante... sera momento de disfrutarla ahora, muchas gracias Master Revolver!! :dplgar:
 

zacygal

Well-known member
Registro
3 Sep 2012
Mensajes
1.515
Reacciones
1.536
Puntos
113
Edad
49

Reputation:

No soy muy fanático, de estas películas, pero se ve buena me la llevo, grax maestro ...
 

Omar Herrera

Well-known member
Miembro del Staff
Súper Moderador
Registro
27 Ago 2012
Mensajes
1.234
Reacciones
325
Puntos
83
Edad
32
Ubicación
Managua

Reputation:

Excelente Pelicula Revolver, muy comica l0l
Gracias Amigo!
Desc_g_
 

temofox

Active member
Registro
16 Feb 2013
Mensajes
582
Reacciones
30
Puntos
28

Reputation:

Esta pelicula la vi ase como 3 años y esta entretenida, recomendada al 100... Gracias!
 

Usuarios Que Están Viendo Este Tema (Total: 1, Miembros: 0, Invitados: 1)

Arriba