Dream Theater - Live At Luna Park (2013) 720p BDRip [AC3 - DTS] (Concierto)

Maestro Revolver

Well-known member
Miembro del Staff
Administrador
Registro
9 Ago 2012
Mensajes
3.567
Reputation
1








Live At Luna Park recoge dos mágicas noches en Sudamérica, hogar de los fans de Dream Theater más apasionados del mundo. Este DVD fue filmado tras 15 meses de gira, que pasó por 35 países. “Esta es sin duda la experiencia más cercana que tendrá el espectador a estar en un concierto de Dream Theater“, declara el guitarrista y miembro fundador, John Petrucci. “Entre la alta definición y el vídeo en 3D, la increíble mezcla de sonido y las escenas entre bastidores a modo de documental, te sientes verdaderamente transportado al estadio y completamente sumergido en la experiencia. Tenemos los mejores fans del mundo, ¡y la gente de Argentina no es la excepción!“, añade Petrucci. “La energía que se respiraba en el Luna Park era realmente lectrizante y contagiosa. Una sinergia perfecta entre la banda y su público. Estamos inmensamente orgullosos de este DVD, ¡y estamos muy emocionados por que todos lo veáis! “



Track List:

01. Bridges in the Sky
02. 6:00
03. The Dark Eternal Night
04. This is the Life
05. The Root of All Evil
06. Lost Not Forgotten
07. Drum Solo
08. A Fortune in Lies
09. The Silent Man
10. Beneath the Surface
11. Outcry
12. Piano Solo
13. Surrounded
14. On the Backs of Angels
15. War Inside My Head
16. The Test That Stumped Them All
17. Guitar Solo
18. The Spirit Carries On
19. Breaking All Illusions
20. Metropolis Pt. 1





































Código:
General
Format                                   : Matroska
Format version                           : Version 2
File size                                : 7.27 GiB
Duration                                 : 2h 40mn
Overall bit rate                         : 6 494 Kbps
Movie name                               : www.club-hd.com
Encoded date                             : UTC 2013-11-12 15:58:45
Writing application                      : mkvmerge v5.7.0 ('The Whirlwind') built on Jul  8 2012 20:08:51
Writing library                          : libebml v1.2.3 + libmatroska v1.3.0

Video
ID                                       : 1
Format                                   : AVC
Format/Info                              : Advanced Video Codec
Format profile                           : High@L4.1
Format settings, CABAC                   : Yes
Format settings, ReFrames                : 5 frames
Codec ID                                 : V_MPEG4/ISO/AVC
Duration                                 : 2h 40mn
Bit rate                                 : 4 342 Kbps
Width                                    : 1 280 pixels
Height                                   : 720 pixels
Display aspect ratio                     : 16:9
Frame rate mode                          : Constant
Frame rate                               : 29.970 fps
Color space                              : YUV
Chroma subsampling                       : 4:2:0
Bit depth                                : 8 bits
Scan type                                : Progressive
Bits/(Pixel*Frame)                       : 0.157
Stream size                              : 4.72 GiB (65%)
Title                                    : www.club-hd.com
Writing library                          : x264 core 138 r2358 9e941d1
Language                                 : English
Default                                  : Yes
Forced                                   : No

Audio #1
ID                                       : 2
Format                                   : DTS
Format/Info                              : Digital Theater Systems
Mode                                     : 16
Format settings, Endianness              : Big
Codec ID                                 : A_DTS
Duration                                 : 2h 40mn
Bit rate mode                            : Constant
Bit rate                                 : 1 509 Kbps
Channel(s)                               : 6 channels
Channel positions                        : Front: L C R, Side: L R, LFE
Sampling rate                            : 48.0 KHz
Bit depth                                : 24 bits
Compression mode                         : Lossy
Stream size                              : 1.69 GiB (23%)
Title                                    : www.club-hd.com  >>  DTS
Language                                 : English
Default                                  : Yes
Forced                                   : No

Audio #2
ID                                       : 3
Format                                   : AC-3
Format/Info                              : Audio Coding 3
Mode extension                           : CM (complete main)
Format settings, Endianness              : Big
Codec ID                                 : A_AC3
Duration                                 : 2h 40mn
Bit rate mode                            : Constant
Bit rate                                 : 640 Kbps
Channel(s)                               : 6 channels
Channel positions                        : Front: L C R, Side: L R, LFE
Sampling rate                            : 48.0 KHz
Bit depth                                : 16 bits
Compression mode                         : Lossy
Stream size                              : 734 MiB (10%)
Title                                    : www.club-hd.com  >>  AC3
Language                                 : English
Default                                  : No
Forced                                   : No

Menu
00:00:00.000                             : en:00:00:00.000
00:10:59.826                             : en:00:10:59.826
00:18:09.322                             : en:00:18:09.322
00:28:11.323                             : en:00:28:11.323
00:35:11.977                             : en:00:35:11.977
00:44:41.812                             : en:00:44:41.812
00:54:51.522                             : en:00:54:51.522
01:01:19.676                             : en:01:01:19.676
01:08:00.009                             : en:01:08:00.009
01:12:05.188                             : en:01:12:05.188
01:17:48.464                             : en:01:17:48.464
01:29:18.086                             : en:01:29:18.086
01:32:20.702                             : en:01:32:20.702
01:38:23.998                             : en:01:38:23.998
01:46:59.046                             : en:01:46:59.046
01:49:24.191                             : en:01:49:24.191
01:54:26.093                             : en:01:54:26.093
02:04:21.721                             : en:02:04:21.721
02:11:42.261                             : en:02:11:42.261
02:25:26.484                             : en:02:25:26.484
02:37:59.837                             : en:02:37:59.837








Enlaces de Mega y Google Drive solo disponibles para Miembros VIP

Compra tu Membresía VIP y apoya a Club-HD!

ATENCIÓN! Tenemos TODO el material de Club-HD disponible por Mega y Google Drive, enlaces 100% activos y online hasta la fecha

Llévate tus cuentas Mega PRO III gratis con tu membresía VIP!
Todos los posts vivos con links de Mega y Google Drive.
Todo el material de Club-HD desbloqueado y sin publicidad.

Click Aquí para más información.



Para ver este contenido oculto, debes dar click en una de las siguientes reacciones : Like Like, Love Love, Haha Haha, Wow Wow, Sad Sad, Angry Angry
 
Última edición por un moderador:

virus619

Well-known member
Registro
28 Ago 2012
Mensajes
4.198
Reputation
0
Edad
34
Gracias master 22, pedaso de concierto :) puedes suvir el de epica Retrospect 2013 :)
 

Usuarios Que Están Viendo Este Tema (Total: 1, Miembros: 0, Invitados: 1)

Quién Leyó Este Tema (Total Miembros: 3)

Arriba