Dredd (2012) 1080p BDRip Dual Latino-Inglés [Subt. Esp-Ing] (Ciencia ficción. Acción)

Maestro Revolver

Well-known member
Miembro del Staff
Administrador
Registro
9 Ago 2012
Mensajes
3.569
Reacciones
59.346
Puntos
113

Reputation:









TÍTULO ORIGINAL: Dredd
AÑO: 2012
DURACIÓN: 95 min.
PAÍS: Reino Unido
DIRECTOR: Pete Travis
GUIÓN: Alex Garland
REPARTO: Karl Urban, Olivia Thirlby, Lena Headey, Domhnall Gleeson, Santi Scinelli, Jason Cope, Deobia Oparei, Langley Kirkwood, Brandon Livanos, Rakie Ayola, Allen Irwin, Joe Vaz, Scott Sparrow
PRODUCTORA: DNA Films / IM Global / Reliance Big Entertainment
GÉNERO: Ciencia ficción. Acción | Cómic. 3-D
: http://www.imdb.com/title/tt1343727/






En un futuro cercano, Norteamérica se ha convertido en un páramo asolado por la radiactividad. Una única y gran megalópolis se extiende a lo largo de la costa este: Mega City 1. Esta inmensa y violenta urbe cuenta con una población de más de 400 millones de personas, cada una de las cuales es un infractor en potencia. Los encargados de acabar con el caos e imponer el orden son unos individuos que actúan a la vez como agentes de la ley, jueces, jurados y verdugos. Al frente de ellos está Dredd (Karl Urban), una leyenda viva de la justicia que vive entregado por entero a hacer cumplir la ley. En una misión aparentemente rutinaria junto a Cassandra Anderson (Olivia Thrilby), una juez novata dotada de grandes habilidades psíquicas, se disponen a investigar un homicidio en un peligroso rascacielos de 200 pisos de altura, controlado por el clan de la despiadada Ma-Ma (Lena Headley). Pero al intentar arrestar a uno de los principales secuaces de Ma-Ma, ella cierra a cal y canto todo el edificio y ordena a sus hombres que capturen a los jueces. La lucha por la supervivencia, obligará a Dredd y Cassandra a actuar de manera implacable. Nueva adaptación del cómic homónimo ya llevado a la pantalla en 1995.
























La pelicula NO tiene ninguna marca... solo colocamos el nombre de esta web en las capturas






Código:
General
Format                                   : Matroska
Format version                           : Version 2
File size                                : 7.26 GiB
Duration                                 : 1h 35mn
Overall bit rate                         : 10.8 Mbps
Movie name                               : www.club-hd.com
Encoded date                             : UTC 2012-12-29 18:11:53
Writing application                      : mkvmerge v5.7.0 ('The Whirlwind') built on Jul  8 2012 20:08:51
Writing library                          : libebml v1.2.3 + libmatroska v1.3.0

Video
ID                                       : 1
Format                                   : AVC
Format/Info                              : Advanced Video Codec
Format profile                           : High@L4.1
Format settings, CABAC                   : Yes
Format settings, ReFrames                : 5 frames
Codec ID                                 : V_MPEG4/ISO/AVC
Duration                                 : 1h 35mn
Bit rate                                 : 8 281 Kbps
Width                                    : 1 920 pixels
Height                                   : 800 pixels
Display aspect ratio                     : 2.40:1
Frame rate mode                          : Constant
Frame rate                               : 23.976 fps
Color space                              : YUV
Chroma subsampling                       : 4:2:0
Bit depth                                : 8 bits
Scan type                                : Progressive
Bits/(Pixel*Frame)                       : 0.225
Stream size                              : 5.38 GiB (74%)
Title                                    : www.club-hd.com
Writing library                          : x264 core 129 r2230 1cffe9f
Language                                 : English
Default                                  : Yes
Forced                                   : No

Audio #1
ID                                       : 2
Format                                   : AC-3
Format/Info                              : Audio Coding 3
Mode extension                           : CM (complete main)
Format settings, Endianness              : Big
Codec ID                                 : A_AC3
Duration                                 : 1h 35mn
Bit rate mode                            : Constant
Bit rate                                 : 448 Kbps
Channel(s)                               : 6 channels
Channel positions                        : Front: L C R, Side: L R, LFE
Sampling rate                            : 48.0 KHz
Bit depth                                : 16 bits
Compression mode                         : Lossy
Delay relative to video                  : 500ms
Stream size                              : 307 MiB (4%)
Title                                    : www.club-hd.com  >>   Latino AC3 5.1
Language                                 : Spanish
Default                                  : Yes
Forced                                   : No

Audio #2
ID                                       : 3
Format                                   : AC-3
Format/Info                              : Audio Coding 3
Mode extension                           : CM (complete main)
Format settings, Endianness              : Big
Codec ID                                 : A_AC3
Duration                                 : 1h 35mn
Bit rate mode                            : Constant
Bit rate                                 : 640 Kbps
Channel(s)                               : 6 channels
Channel positions                        : Front: L C R, Side: L R, LFE
Sampling rate                            : 48.0 KHz
Bit depth                                : 16 bits
Compression mode                         : Lossy
Stream size                              : 439 MiB (6%)
Title                                    : www.club-hd.com  >>   Inglés AC3 5.1
Language                                 : English
Default                                  : No
Forced                                   : No

Audio #3
ID                                       : 4
Format                                   : DTS
Format/Info                              : Digital Theater Systems
Mode                                     : 16
Format settings, Endianness              : Big
Codec ID                                 : A_DTS
Duration                                 : 1h 35mn
Bit rate mode                            : Constant
Bit rate                                 : 1 509 Kbps
Channel(s)                               : 6 channels
Channel positions                        : Front: L C R, Side: L R, LFE
Sampling rate                            : 48.0 KHz
Bit depth                                : 24 bits
Compression mode                         : Lossy
Stream size                              : 1.01 GiB (14%)
Title                                    : www.club-hd.com  >>   Inglés DTS 5.1
Language                                 : English
Default                                  : No
Forced                                   : No

Text #1
ID                                       : 5
Format                                   : UTF-8
Codec ID                                 : S_TEXT/UTF8
Codec ID/Info                            : UTF-8 Plain Text
Language                                 : Spanish
Default                                  : No
Forced                                   : No

Text #2
ID                                       : 6
Format                                   : UTF-8
Codec ID                                 : S_TEXT/UTF8
Codec ID/Info                            : UTF-8 Plain Text
Language                                 : English
Default                                  : No
Forced                                   : No

Menu
00:00:00.000                             : en:00:00:00.000
00:05:43.552                             : en:00:05:43.552
00:08:14.661                             : en:00:08:14.661
00:14:17.356                             : en:00:14:17.356
00:19:42.681                             : en:00:19:42.681
00:24:09.323                             : en:00:24:09.323
00:27:21.056                             : en:00:27:21.056
00:36:01.284                             : en:00:36:01.284
00:39:49.012                             : en:00:39:49.012
00:48:26.946                             : en:00:48:26.946
00:54:39.651                             : en:00:54:39.651
01:00:57.237                             : en:01:00:57.237
01:06:30.570                             : en:01:06:30.570
01:12:01.651                             : en:01:12:01.651
01:20:10.264                             : en:01:20:10.264
01:27:00.382                             : en:01:27:00.382




Enlaces de Mega y Fireload solo disponibles para Miembros VIP

Compra tu Membresía VIP y apoya a Club-HD!

ATENCIÓN! Tenemos TODO el material de Club-HD disponible por Mega y Fireload, enlaces 100% activos y online hasta la fecha

Llévate tus cuentas Mega PRO II gratis con tu membresía VIP!
Todos los posts vivos con links de Mega y Fireload.
Todo el material de Club-HD desbloqueado y sin publicidad.

Click Aquí para más información.

Enlaces de Mega y Fireload solo disponibles para Miembros VIP

Compra tu Membresía VIP y apoya a Club-HD!

ATENCIÓN! Tenemos TODO el material de Club-HD disponible por Mega y Fireload, enlaces 100% activos y online hasta la fecha

Llévate tus cuentas Mega PRO II gratis con tu membresía VIP!
Todos los posts vivos con links de Mega y Fireload.
Todo el material de Club-HD desbloqueado y sin publicidad.

Click Aquí para más información.


Para ver este contenido oculto, debes dar click en una de las siguientes reacciones : Like Like, Love Love, Haha Haha, Wow Wow, Sad Sad, Angry Angry


Para ver este contenido oculto, debes dar click en una de las siguientes reacciones : Like Like, Love Love, Haha Haha, Wow Wow, Sad Sad, Angry Angry
 
Última edición por un moderador:

Bisshop69

Member
Registro
31 Ago 2012
Mensajes
392
Reacciones
18
Puntos
18

Reputation:

Muchas gracias amigo... son ideales los tamaños de las pelis 1080p que subes... pero esperare el 720p latino =D Saludos!
 

Escorpion41

Active member
Registro
19 Sep 2012
Mensajes
324
Reacciones
32
Puntos
28
Edad
50

Reputation:

gracias porcompartir el esfuerso de su trabajo........
 

l2afa

New member
Registro
1 Sep 2012
Mensajes
201
Reacciones
2
Puntos
0

Reputation:

Excelente película..;) Aunque sangrienta para los niños.
 
Última edición:

arkkangeldark

Well-known member
Registro
27 Ago 2012
Mensajes
3.445
Reacciones
576
Puntos
113
Edad
34
Ubicación
Torreon Coahuila

Reputation:

gracias revolver, ya la vi en ingles pero vamos a ver que tal esta en latino y en esta super calidad, saludos
 

nathan8

Well-known member
Registro
27 Ago 2012
Mensajes
1.770
Reacciones
349
Puntos
83
Edad
32

Reputation:

son los mejores muchas grasias
 

Usuarios Que Están Viendo Este Tema (Total: 1, Miembros: 0, Invitados: 1)

Arriba