Drinking Buddies (2013) 720p BDRip Audio Inglés [Subt. Esp] (Comedia. Romance)

Maestro Revolver

Administrador
Registro
9 Ago 2012
Mensajes
3.157
Reacciones (ptje)
55.374


Drinking-Buddies.jpg




FichaTecnica.jpg


TÍTULO ORIGINAL: Drinking Buddies
AÑO: 2013
DURACIÓN: 90 min.
PAÍS: USA
DIRECTOR: Joe Swanberg
GUIÓN: Joe Swanberg
REPARTO: Olivia Wilde, Jake Johnson, Anna Kendrick, Ron Livingston, Ti West, Gene Dentler, Mike Brune, Frank V. Ross, Michael Gaertner, Kristin Davis, Jim Cibak, Alicia Van Couvering, Joe Swanberg
PRODUCTORA: Magnolia Pictures / Burn Later Productions
GÉNERO: Comedia. Romance | Mumblecore. Cine independiente USA
imdb-logo.png
: http://www.imdb.com/title/tt2265398/




Sinopsis.jpg


Lucas y Kate son dos geeks de la cerveza en una cervecería de Chicago. Inseparables en el trabajo, los dos lo comparten todo, desde bromas infantiles a una afición por el esnobismo alcohólico, hasta una atracción apenas enmascarada por su ocasional coqueteo. Ambos están comprometidos en otras relaciones- Jake vive con su novia, Jill, y Kate con su novio, Chris.




Trailer.jpg






Capturas.jpg


1.jpg


2.jpg


3.jpg


4.jpg


5.jpg


6.jpg


La pelicula NO tiene ninguna marca... solo colocamos el nombre de esta web en las capturas




MediaInfo.jpg


Código:
General
Format                                   : Matroska
Format version                           : Version 2
File size                                : 3.81 GiB
Duration                                 : 1h 30mn
Overall bit rate                         : 6 043 Kbps
Movie name                               : www.club-hd.com
Encoded date                             : UTC 2013-11-22 22:58:59
Writing application                      : mkvmerge v5.7.0 ('The Whirlwind') built on Jul  8 2012 20:08:51
Writing library                          : libebml v1.2.3 + libmatroska v1.3.0

Video
ID                                       : 1
Format                                   : AVC
Format/Info                              : Advanced Video Codec
Format profile                           : [email protected]
Format settings, CABAC                   : Yes
Format settings, ReFrames                : 5 frames
Codec ID                                 : V_MPEG4/ISO/AVC
Duration                                 : 1h 30mn
Bit rate                                 : 5 401 Kbps
Width                                    : 1 280 pixels
Height                                   : 544 pixels
Display aspect ratio                     : 2.35:1
Frame rate mode                          : Constant
Frame rate                               : 23.976 fps
Color space                              : YUV
Chroma subsampling                       : 4:2:0
Bit depth                                : 8 bits
Scan type                                : Progressive
Bits/(Pixel*Frame)                       : 0.324
Stream size                              : 3.33 GiB (87%)
Title                                    : www.club-hd.com
Writing library                          : x264 core 140 r2377 1ca7bb9
Language                                 : English
Default                                  : Yes
Forced                                   : No

Audio
ID                                       : 2
Format                                   : AC-3
Format/Info                              : Audio Coding 3
Mode extension                           : CM (complete main)
Format settings, Endianness              : Big
Codec ID                                 : A_AC3
Duration                                 : 1h 30mn
Bit rate mode                            : Constant
Bit rate                                 : 640 Kbps
Channel(s)                               : 6 channels
Channel positions                        : Front: L C R, Side: L R, LFE
Sampling rate                            : 48.0 KHz
Bit depth                                : 16 bits
Compression mode                         : Lossy
Stream size                              : 414 MiB (11%)
Title                                    : www.club-hd.com
Language                                 : English
Default                                  : Yes
Forced                                   : No

Text
ID                                       : 3
Format                                   : UTF-8
Codec ID                                 : S_TEXT/UTF8
Codec ID/Info                            : UTF-8 Plain Text
Title                                    : www.club-hd.com
Language                                 : Spanish
Default                                  : Yes
Forced                                   : No




Descarga.jpg



MEGA.jpg

Tenemos TODO el material de Club-HD disponible por Mega, enlaces 100% activos y online hasta la fecha

Llévate tus cuentas Mega PRO III gratis con tu membresía VIP!
Todos los posts vivos con links de Mega.
Todo el material de Club-HD desbloqueado y sin publicidad.

Obtén más información sobre nuestras Membresías VIP



UPLOADED_BANNER.png

Para ver este contenido oculto, debes dar click en el botón"Like", o cualquiera de las otras reacciones:

Me Gusta Me Gusta, Me Encanta Me Encanta, Jaja Jaja, Wow Wow, Triste Triste, Molesto Molesto

 
Última edición por un moderador:
no me cabe la menor duda que en esta pagina, suben puro buen material. gracias
 
Muchas gracias Revol, pero como te imaginaras. . .la esperaré en Latino :bsrs:
 
Muchas Gracias!!!

Juga con Doctor Jason: Solo para varones, en menos de 10 segundos desime cuantos botellas de cerveza hay en la foto...........

cuantas-cervezas-hay-en-la_0.jpg


.........cervezaaa!!!! díje, que estan mirandoooo???!!!!:D
 
Volver