• Buenos dias amigos del club. Les queremos avisar que ya recuperamos el acceso a las webs de las Membresías VIP y del Paste. Asi que ya pueden comprar sus membresías y descargar todos los estrenos nuevamente.

Driven (2001) m-720p BDRip Dual Latino-Inglés [Subt. Esp] (Acción)

Maestro Revolver

Administrador
Registro
9 Ago 2012
Mensajes
3.157
Reacciones (ptje)
55.322


Driven.jpg




FichaTecnica.jpg


TÍTULO ORIGINAL: Driven
AÑO: 2001
DURACIÓN: 115 min.
PAÍS: USA
DIRECTOR: Renny Harlin
GUIÓN: Sylvester Stallone
REPARTO: Sylvester Stallone, Burt Reynolds, Kip Pardue, Til Schweiger, Gina Gershon, Estella Warren, Cristian de la Fuente, Robert Sean Leonard, Brent Briscoe
PRODUCTORA: Franchise Pictures
GÉNERO: Acción | Deporte. Coches / Automovilismo
imdb-logo.png
: http://www.imdb.com/title/tt0132245/




Sinopsis.jpg


Trepidante drama de acción ambientado en el peligroso y emocionante mundo de las carreras de coches. El genial pero impetuoso principiante Jimmy Bly pierde posiciones en el ránking al no poder soportar la presión a la que lo somete su ambicioso hermano y promotor. Pero hay otro asunto que le impide concentrarse: quiere conquistar a Sophia, la novia de su máximo rival. Así las cosas, el dueño de la escudería pide ayuda a Joe Tanto, una estrella del automovilismo cuya espléndida carrera se vio truncada por un trágico accidente. Pero para conseguir que Bly llegue a la cima, Joe tendrá que resolver antes no pocos problemas personales.




Trailer.jpg






Capturas.jpg


1.jpg


2.jpg


3.jpg


4.jpg


5.jpg


6.jpg


La pelicula NO tiene ninguna marca... solo colocamos el nombre de esta web en las capturas




MediaInfo.jpg


Código:
General
Format                                   : Matroska
Format version                           : Version 2
File size                                : 2.95 GiB
Duration                                 : 1h 52mn
Overall bit rate                         : 3 765 Kbps
Movie name                               : www.club-hd.com
Encoded date                             : UTC 2013-08-29 04:03:50
Writing application                      : mkvmerge v5.7.0 ('The Whirlwind') built on Jul  8 2012 20:08:51
Writing library                          : libebml v1.2.3 + libmatroska v1.3.0

Video
ID                                       : 1
Format                                   : AVC
Format/Info                              : Advanced Video Codec
Format profile                           : [email protected]
Format settings, CABAC                   : Yes
Format settings, ReFrames                : 5 frames
Codec ID                                 : V_MPEG4/ISO/AVC
Duration                                 : 1h 52mn
Bit rate                                 : 2 751 Kbps
Width                                    : 1 280 pixels
Height                                   : 528 pixels
Display aspect ratio                     : 2.40:1
Frame rate mode                          : Constant
Frame rate                               : 25.000 fps
Original frame rate                      : 23.976 fps
Color space                              : YUV
Chroma subsampling                       : 4:2:0
Bit depth                                : 8 bits
Scan type                                : Progressive
Bits/(Pixel*Frame)                       : 0.163
Stream size                              : 2.19 GiB (74%)
Title                                    : www.club-hd.com
Writing library                          : x264 core 133 r2334 a3ac64b
Language                                 : English
Default                                  : Yes
Forced                                   : No

Audio #1
ID                                       : 2
Format                                   : AC-3
Format/Info                              : Audio Coding 3
Mode extension                           : CM (complete main)
Format settings, Endianness              : Big
Codec ID                                 : A_AC3
Duration                                 : 1h 52mn
Bit rate mode                            : Constant
Bit rate                                 : 448 Kbps
Channel(s)                               : 2 channels
Channel positions                        : Front: L R
Sampling rate                            : 48.0 KHz
Bit depth                                : 16 bits
Compression mode                         : Lossy
Stream size                              : 359 MiB (12%)
Title                                    : www.club-hd.com > Latino
Language                                 : Spanish
Default                                  : Yes
Forced                                   : No

Audio #2
ID                                       : 3
Format                                   : AC-3
Format/Info                              : Audio Coding 3
Mode extension                           : CM (complete main)
Format settings, Endianness              : Big
Codec ID                                 : A_AC3
Duration                                 : 1h 52mn
Bit rate mode                            : Constant
Bit rate                                 : 448 Kbps
Channel(s)                               : 6 channels
Channel positions                        : Front: L C R, Side: L R, LFE
Sampling rate                            : 48.0 KHz
Bit depth                                : 16 bits
Compression mode                         : Lossy
Stream size                              : 359 MiB (12%)
Title                                    : www.club-hd.com > Inglés
Language                                 : English
Default                                  : No
Forced                                   : No

Text
ID                                       : 4
Format                                   : UTF-8
Codec ID                                 : S_TEXT/UTF8
Codec ID/Info                            : UTF-8 Plain Text
Language                                 : Spanish
Default                                  : No
Forced                                   : No




Descarga.jpg



MEGA.jpg

Tenemos TODO el material de Club-HD disponible por Mega, enlaces 100% activos y online hasta la fecha

Llévate tus cuentas Mega PRO III gratis con tu membresía VIP!
Todos los posts vivos con links de Mega.
Todo el material de Club-HD desbloqueado y sin publicidad.

Obtén más información sobre nuestras Membresías VIP


UPLOADED_BANNER.png

Para ver este contenido oculto, debes dar click en el botón"Like", o cualquiera de las otras reacciones:

Me Gusta Me Gusta, Me Encanta Me Encanta, Jaja Jaja, Wow Wow, Triste Triste, Molesto Molesto



 
Última edición por un moderador:
Muchas gracias Revol, no conocia esta peli, aunque Brainsito si :dplgar:, pero como siempre gracias a ti todo se puede !! :aplausos:
 
MUCHAS GRACIAS Revolver i-m_so_happy

Tb_up3 Me gustan mucho las películas con mucha acción tvhappy por lo que boxing2 Sylvester Stallone boxing2 es uno de mis actores preferido :D
Sin embargo esta peli nunca me termino de convencer mucho DUD4_5 Pnsand0
Pero no me puede faltar en la colección una peli de uno de mis actores preferidos, por lo que MUCHAS GRACIAS :aplausos: :aplausos: :aplausos: :aplausos: :aplausos:
Desc_g_
 
Volver