• Este aviso va dirigido a todos los nuevos miembros recien llegados a Club-HD. Les recordamos que la direccion URL de este sitio web es , asi que deben acceder únicamente por esta URL. Sean todos bienvenidos al Club!

Dumbo (1941) 1080p BDRip HEVC Dual Audio Latino - Inglés [Subt.Esp] ( Animación )

Klass

DARK
Uploader
Registrado
27 Sep 2015
Mensajes
750
Puntos de reacción
6,345
Puntos
93


Título original: Dumbo
Latino: Dumbo
Año: 1941
Duración: 64 min.
País:
Estados Unidos
Director: Ben Sharpsteen
Reparto: Animation
Productora: Walt Disney Productions
Genero: Animación. Musical. Comedia. Infantil | Circo. Cine familiar

Premios:
1941: Oscar: Mejor banda sonora (Musical). 2 nominaciones
1947: Festival de Cannes: Mejor animación


Sinopsis
Las cigüeñas llegan, como todos los años, hasta un pintoresco circo para repartir los bebés a sus respectivas mamás. La señora Dumbo, una elefanta, descubre que su bebé tiene unas orejas enormes; todas sus compañeras se ríen de él, pero la señora Dumbo lo defiende siempre, hasta el punto de ser encerrada por enfrentarse a todo aquel que se mofe de su retoño. El pequeño Dumbo, maltratado y ridiculizado por todos sus compañeros, sólo cuenta con la ayuda de un minúsculo ratoncito llamado Timothy, que decide hacer de él una estrella del circo.

7.3/10














Código:
Format                                   : Matroska
Format version                           : Version 4
File size                                : 2.43 GiB
Duration                                 : 1 h 3 min
Overall bit rate                         : 5 432 kb/s
Movie name                               : Dumbo - www.club-hd.com [KLASS]
Encoded date                             : UTC 2019-04-11 05:38:21
Writing application                      : mkvmerge v27.0.0 ('Metropolis') 64-bit
Writing library                          : libebml v1.3.6 + libmatroska v1.4.9
Uploader                                 : Klass
Web                                      : www.club-hd.com

Video
ID                                       : 1
Format                                   : HEVC
Format/Info                              : High Efficiency Video Coding
Format profile                           : Main 10@L4@Main
Codec ID                                 : V_MPEGH/ISO/HEVC
Duration                                 : 1 h 3 min
Bit rate                                 : 4 150 kb/s
Width                                    : 1 440 pixels
Height                                   : 1 080 pixels
Display aspect ratio                     : 4:3
Frame rate mode                          : Constant
Frame rate                               : 23.976 (24000/1001) FPS
Color space                              : YUV
Chroma subsampling                       : 4:2:0
Bit depth                                : 10 bits
Bits/(Pixel*Frame)                       : 0.111
Stream size                              : 1.85 GiB (76%)
Writing library                          : x265 2.1+74-e5759d587ae2:[Windows][GCC 6.2.0][64 bit] 10bit
Encoding settings                        : cpuid=1173503 / frame-threads=3 / numa-pools=8 / wpp / no-pmode / no-pme / no-psnr / ssim / log-level=2 / input-csp=1 / input-res=1440x1080 / interlace=0 / total-frames=0 / level-idc=41 / high-tier=1 / uhd-bd=0 / ref=5 / no-allow-non-conformance / repeat-headers / annexb / aud / hrd / info / hash=0 / no-temporal-layers / open-gop / min-keyint=23 / keyint=250 / bframes=8 / b-adapt=2 / b-pyramid / bframe-bias=0 / rc-lookahead=60 / lookahead-slices=1 / scenecut=40 / no-intra-refresh / ctu=32 / min-cu-size=8 / no-rect / no-amp / max-tu-size=32 / tu-inter-depth=2 / tu-intra-depth=2 / limit-tu=0 / rdoq-level=1 / signhide / no-tskip / nr-intra=0 / nr-inter=0 / no-constrained-intra / no-strong-intra-smoothing / max-merge=2 / limit-refs=3 / no-limit-modes / me=1 / subme=5 / merange=60 / temporal-mvp / weightp / weightb / no-analyze-src-pics / deblock=-3:-3 / no-sao / no-sao-non-deblock / rd=4 / no-early-skip / no-rskip / no-fast-intra / no-tskip-fast / no-cu-lossless / no-b-intra / rdpenalty=0 / psy-rd=1.70 / psy-rdoq=2.50 / no-rd-refine / analysis-mode=0 / no-lossless / cbqpoffs=0 / crqpoffs=0 / rc=crf / crf=22.0 / qcomp=0.90 / qpstep=6 / stats-write=0 / stats-read=0 / vbv-maxrate=50000 / vbv-bufsize=50000 / vbv-init=0.9 / crf-max=0.0 / crf-min=0.0 / ipratio=1.50 / pbratio=1.00 / aq-mode=1 / aq-strength=0.50 / no-cutree / zone-count=0 / no-strict-cbr / qg-size=32 / no-rc-grain / qpmax=69 / qpmin=0 / sar=1 / overscan=0 / videoformat=5 / range=0 / colorprim=2 / transfer=2 / colormatrix=1 / chromaloc=0 / display-window=0 / max-cll=0,0 / min-luma=0 / max-luma=1023 / log2-max-poc-lsb=8 / vui-timing-info / vui-hrd-info / slices=1 / opt-qp-pps / opt-ref-list-length-pps / no-multi-pass-opt-rps / scenecut-bias=0.05
Default                                  : Yes
Forced                                   : Yes
Color range                              : Limited
Matrix coefficients                      : BT.709

Audio #1
ID                                       : 2
Format                                   : AC-3
Format/Info                              : Audio Coding 3
Commercial name                          : Dolby Digital
Codec ID                                 : A_AC3
Duration                                 : 1 h 3 min
Bit rate mode                            : Constant
Bit rate                                 : 640 kb/s
Channel(s)                               : 6 channels
Channel layout                           : L R C LFE Ls Rs
Sampling rate                            : 48.0 kHz
Frame rate                               : 31.250 FPS (1536 SPF)
Bit depth                                : 16 bits
Compression mode                         : Lossy
Stream size                              : 293 MiB (12%)
Title                                    : Latino Bluray
Language                                 : Latin
Service kind                             : Complete Main
Default                                  : Yes
Forced                                   : No

Audio #2
ID                                       : 3
Format                                   : AC-3
Format/Info                              : Audio Coding 3
Commercial name                          : Dolby Digital
Codec ID                                 : A_AC3
Duration                                 : 1 h 3 min
Bit rate mode                            : Constant
Bit rate                                 : 640 kb/s
Channel(s)                               : 6 channels
Channel layout                           : L R C LFE Ls Rs
Sampling rate                            : 48.0 kHz
Frame rate                               : 31.250 FPS (1536 SPF)
Bit depth                                : 16 bits
Compression mode                         : Lossy
Stream size                              : 293 MiB (12%)
Title                                    : Inglés Bluray
Language                                 : English
Service kind                             : Complete Main
Default                                  : No
Forced                                   : No

Text #1
ID                                       : 4
Format                                   : UTF-8
Codec ID                                 : S_TEXT/UTF8
Codec ID/Info                            : UTF-8 Plain Text
Duration                                 : 1 h 0 min
Bit rate                                 : 0 b/s
Count of elements                        : 22
Stream size                              : 440 Bytes (0%)
Title                                    : Forzados
Language                                 : Latin
Default                                  : Yes
Forced                                   : No

Text #2
ID                                       : 5
Format                                   : UTF-8
Codec ID                                 : S_TEXT/UTF8
Codec ID/Info                            : UTF-8 Plain Text
Duration                                 : 1 h 2 min
Bit rate                                 : 44 b/s
Count of elements                        : 644
Stream size                              : 20.2 KiB (0%)
Title                                    : Completos
Language                                 : Latin
Default                                  : No
Forced                                   : No

Menu
00:00:00.000                             : en:Opening Credits
00:01:19.871                             : en:"Look Out For Mr. Stork"
00:04:14.921                             : en:The Circus Moves On ("Casey Jr.")
00:06:34.352                             : en:Delivery for Mrs. Jumbo
00:12:49.727                             : en:Setting Up the Big Top ("Song of the Roustabouts")
00:17:01.437                             : en:A Bath for Dumbo
00:20:08.040                             : en:Mrs. Jumbo in Solitary Confinement
00:23:32.702                             : en:Dumbo Meets a New Friend
00:28:30.542                             : en:A Pyramid of Pachyderms
00:35:19.534                             : en:Dumbo's Disgrace
00:38:11.914                             : en:Dumbe Visits His Mother
00:42:34.510                             : en:Dumbo Gets the Hiccups
00:46:07.723                             : en:"Pink Elephants on Parade"
00:51:00.682                             : en:Up a Tree
00:54:42.278                             : en:"When I See an Elephant Fly"
00:58:40.350                             : en:Dumbe Flies!
01:00:19.449                             : en:Dumbo's Surprise
01:03:55.831                             : en:Chapter 18

Contraseña: [B][SIZE=6]www.club-hd.com[/SIZE][/B]




Enlaces de Mega y Google Drive solo disponibles para Miembros VIP

Compra tu Membresía VIP y apoya a Club-HD!

ATENCIÓN! Tenemos TODO el material de Club-HD disponible por Mega y Google Drive, enlaces 100% activos y online hasta la fecha

Llévate tus cuentas Mega PRO II gratis con tu membresía VIP!
Todos los posts vivos con links de Mega y Google Drive.
Todo el material de Club-HD desbloqueado y sin publicidad.

Click Aquí para más información.


Enlaces de Mega y Google Drive solo disponibles para Miembros VIP

Compra tu Membresía VIP y apoya a Club-HD!

ATENCIÓN! Tenemos TODO el material de Club-HD disponible por Mega y Google Drive, enlaces 100% activos y online hasta la fecha

Llévate tus cuentas Mega PRO II gratis con tu membresía VIP!
Todos los posts vivos con links de Mega y Google Drive.
Todo el material de Club-HD desbloqueado y sin publicidad.

Click Aquí para más información.


Para ver este contenido oculto, debes dar click en una de las siguientes reacciones: Like Like, Love Love, Haha Haha, Wow Wow, Sad Sad, Angry Angry


Para ver este contenido oculto, debes dar click en una de las siguientes reacciones: Like Like, Love Love, Haha Haha, Wow Wow, Sad Sad, Angry Angry
[/CENTER]
 
Última edición:

Usuarios Que Están Viendo Este Tema (Total: 1, Miembros: 0, Invitados: 1)

Quien Leyó Este Tema (Total Miembros: 2)

Arriba