Dúplex (2003) 1080p HBMAX WEB-DL Dual Latino-Inglés [Subt.Esp] (Comedia. Comedia negra)

Tr3vor

Well-known member
Uploader
Colaborador
Registro
17 May 2018
Mensajes
1.079
Reacciones
11.094
Puntos
113
Edad
32

Reputation:






Un escritor llamado Alex y su novia, Nancy, se mudan a un espacioso apartamento en Brooklyn, Nueva York. La anciana mujer que vive en el piso de arriba parece ser una dulce vecina, pero rápidamente sus constantes demandas y accidentes arruinan los intentos de Alex y Nancy de tener el hogar perfecto. Luego de que descubren que la mujer no puede ser desalojada, la pareja recurre a medidas menos convencionales para deshacerse de ella.


MEDIAINFO
Código:
Format                      : Matroska
Format version              : Version 4
File size                   : 5.62 GiB
Duration                    : 1 h 29 min
Overall bit rate mode       : Variable
Overall bit rate            : 9 017 kb/s
Encoded date                : UTC 2021-08-01 03:13:49
Writing application         : mkvmerge v54.0.0 ('F Maj Pixie') 64-bit
Writing library             : libebml v1.4.2 + libmatroska v1.6.3

Video
ID                          : 1
Format                      : AVC
Format/Info                 : Advanced Video Codec
Format profile              : High@L4
Format settings             : CABAC / 4 Ref Frames
Format settings, CABAC      : Yes
Format settings, Reference  : 4 frames
Codec ID                    : V_MPEG4/ISO/AVC
Duration                    : 1 h 29 min
Bit rate mode               : Variable
Bit rate                    : 8 250 kb/s
Maximum bit rate            : 12.4 Mb/s
Width                       : 1 920 pixels
Height                      : 1 080 pixels
Display aspect ratio        : 16:9
Frame rate mode             : Constant
Frame rate                  : 23.976 (24000/1001) FPS
Color space                 : YUV
Chroma subsampling          : 4:2:0
Bit depth                   : 8 bits
Scan type                   : Progressive
Bits/(Pixel*Frame)          : 0.166
Stream size                 : 5.14 GiB (91%)
Title                       : Trevor
Writing library             : x264 core 157 r2965 861cec4
Encoding settings           : cabac=1 / ref=4 / deblock=1:0:0 / analyse=0x3:0x113 / me=hex / subme=7 / psy=1 / psy_rd=1.00:0.00 / mixed_ref=1 / me_range=16 / chroma_me=1 / trellis=1 / 8x8dct=1 / cqm=0 / deadzone=21,11 / fast_pskip=1 / chroma_qp_offset=-2 / threads=34 / lookahead_threads=5 / sliced_threads=0 / nr=0 / decimate=1 / interlaced=0 / bluray_compat=0 / constrained_intra=0 / bframes=3 / b_pyramid=2 / b_adapt=1 / b_bias=0 / direct=1 / weightb=1 / open_gop=0 / weightp=2 / keyint=96 / keyint_min=96 / scenecut=40 / intra_refresh=0 / rc_lookahead=40 / rc=2pass / mbtree=1 / bitrate=8250 / ratetol=1.0 / qcomp=0.60 / qpmin=0 / qpmax=69 / qpstep=4 / cplxblur=20.0 / qblur=0.5 / vbv_maxrate=12375 / vbv_bufsize=6187 / nal_hrd=vbr / filler=0 / ip_ratio=1.40 / aq=1:1.00
Default                     : Yes
Forced                      : No
Color range                 : Limited
Color primaries             : BT.709
Transfer characteristics    : BT.709
Matrix coefficients         : BT.709

Audio #1
ID                          : 2
Format                      : AC-3
Format/Info                 : Audio Coding 3
Commercial name             : Dolby Digital
Codec ID                    : A_AC3
Duration                    : 1 h 29 min
Bit rate mode               : Constant
Bit rate                    : 384 kb/s
Channel(s)                  : 2 channels
Channel layout              : L R
Sampling rate               : 48.0 kHz
Frame rate                  : 31.250 FPS (1536 SPF)
Compression mode            : Lossy
Stream size                 : 245 MiB (4%)
Title                       : Español latino
Language                    : Spanish
Service kind                : Complete Main
Default                     : Yes
Forced                      : No

Audio #2
ID                          : 3
Format                      : AC-3
Format/Info                 : Audio Coding 3
Commercial name             : Dolby Digital
Codec ID                    : A_AC3
Duration                    : 1 h 29 min
Bit rate mode               : Constant
Bit rate                    : 384 kb/s
Channel(s)                  : 6 channels
Channel layout              : L R C LFE Ls Rs
Sampling rate               : 48.0 kHz
Frame rate                  : 31.250 FPS (1536 SPF)
Compression mode            : Lossy
Stream size                 : 245 MiB (4%)
Title                       : Inglés
Language                    : English
Service kind                : Complete Main
Default                     : No
Forced                      : No

Text
ID                          : 4
Format                      : UTF-8
Codec ID                    : S_TEXT/UTF8
Codec ID/Info               : UTF-8 Plain Text
Duration                    : 1 h 22 min
Bit rate                    : 70 b/s
Count of elements           : 1437
Stream size                 : 42.6 KiB (0%)
Title                       : Español latino [Para sordo]
Language                    : Spanish
Default                     : No
Forced                      : No












Enlaces de Mega y Fireload solo disponibles para Miembros VIP

Compra tu Membresía VIP y apoya a Club-HD!

ATENCIÓN! Tenemos TODO el material de Club-HD disponible por Mega y Fireload, enlaces 100% activos y online hasta la fecha

Llévate tus cuentas Mega PRO II gratis con tu membresía VIP!
Todos los posts vivos con links de Mega y Fireload.
Todo el material de Club-HD desbloqueado y sin publicidad.

Click Aquí para más información.


Para ver este contenido oculto, debes dar click en una de las siguientes reacciones : Like Like, Love Love, Haha Haha, Wow Wow, Sad Sad, Angry Angry
 

Usuarios Que Están Viendo Este Tema (Total: 1, Miembros: 0, Invitados: 1)

Arriba