Edward Scissorhands (1990) 1080p BDRip Dual Latino-Inglés [Subt. Esp-Ing] (Fantástico. Drama. Romance)

Maestro Revolver

Administrador
Registro
9 Ago 2012
Mensajes
3.157
Reacciones (ptje)
54.885

Aporte Recuperado gracias a nuestros amigos sharklui, matias24_bsas y clasaase

Edward-scissorhands.jpg




FICHA_TECNICA.png


TÍTULO ORIGINAL: Edward Scissorhands
AÑO: 1990
DURACIÓN: 98 min.
PAÍS: USA
DIRECTOR: Tim Burton
GUIÓN: Caroline Thompson
REPARTO: Johnny Depp, Winona Ryder, Dianne Wiest, Anthony Michael Hall, Alan Arkin, Kathy Baker, Vincent Price, Caroline Aaron, Robert Oliveri
PRODUCTORA: 20th Century Fox
GÉNERO: Fantástico. Drama. Romance | Película de culto
imdb-logo.png
: http://www.imdb.com/title/tt0099487/

PREMIOS: 1990: Nominada al Oscar: Mejor maquillaje
1991: Premios BAFTA: Mejor diseño de producción. 4 nominaciones




SINOPSIS.png


Durante una noche de Navidad, una anciana le cuenta a su nieta la historia de Eduardo Manostijeras (Johnny Depp), un muchacho creado por un extravagante inventor (Vincent Price) que no pudo acabar su obra, dejando al joven con cuchillas en lugar de dedos.




TRAILER.png






CAPTURAS.png


1.jpg


2.jpg


3.jpg


4.jpg


5.jpg


6.jpg


La pelicula NO tiene ninguna marca... solo colocamos el nombre de esta web en las capturas




DATOS_TECNICOS.png


Código:
General
Format                                   : Matroska
Format version                           : Version 2
File size                                : 15.9 GiB
Duration                                 : 1h 45mn
Overall bit rate                         : 21.6 Mbps
Movie name                               : www.club-hd.com
Encoded date                             : UTC 2012-12-05 01:31:52
Writing application                      : mkvmerge v5.7.0 ('The Whirlwind') built on Jul  8 2012 20:08:51
Writing library                          : libebml v1.2.3 + libmatroska v1.3.0

Video
ID                                       : 1
Format                                   : AVC
Format/Info                              : Advanced Video Codec
Format profile                           : [email protected]
Format settings, CABAC                   : Yes
Format settings, ReFrames                : 4 frames
Codec ID                                 : V_MPEG4/ISO/AVC
Duration                                 : 1h 45mn
Bit rate                                 : 19.5 Mbps
Width                                    : 1 918 pixels
Height                                   : 1 040 pixels
Display aspect ratio                     : 1.85:1
Frame rate mode                          : Constant
Frame rate                               : 23.976 fps
Color space                              : YUV
Chroma subsampling                       : 4:2:0
Bit depth                                : 8 bits
Scan type                                : Progressive
Bits/(Pixel*Frame)                       : 0.408
Stream size                              : 14.0 GiB (88%)
Title                                    : www.club-hd.com
Writing library                          : x264 core 115 r1937 aa21558
Language                                 : English
Default                                  : Yes
Forced                                   : No

Audio #1
ID                                       : 2
Format                                   : AC-3
Format/Info                              : Audio Coding 3
Mode extension                           : CM (complete main)
Format settings, Endianness              : Big
Codec ID                                 : A_AC3
Duration                                 : 1h 45mn
Bit rate mode                            : Constant
Bit rate                                 : 192 Kbps
Channel(s)                               : 2 channels
Channel positions                        : Front: L R
Sampling rate                            : 48.0 KHz
Bit depth                                : 16 bits
Compression mode                         : Lossy
Delay relative to video                  : 700ms
Stream size                              : 144 MiB (1%)
Title                                    : www.club-hd.com  >>  Latino AC3
Language                                 : Spanish
Default                                  : Yes
Forced                                   : No

Audio #2
ID                                       : 3
Format                                   : AC-3
Format/Info                              : Audio Coding 3
Mode extension                           : CM (complete main)
Format settings, Endianness              : Big
Codec ID                                 : A_AC3
Duration                                 : 1h 45mn
Bit rate mode                            : Constant
Bit rate                                 : 448 Kbps
Channel(s)                               : 4 channels
Channel positions                        : Front: L C R, Side: C
Sampling rate                            : 48.0 KHz
Bit depth                                : 16 bits
Compression mode                         : Lossy
Stream size                              : 337 MiB (2%)
Title                                    : www.club-hd.com  >>  Inglés AC3
Language                                 : English
Default                                  : No
Forced                                   : No

Audio #3
ID                                       : 4
Format                                   : DTS
Format/Info                              : Digital Theater Systems
Mode                                     : 16
Format settings, Endianness              : Big
Codec ID                                 : A_DTS
Duration                                 : 1h 45mn
Bit rate mode                            : Constant
Bit rate                                 : 1 509 Kbps
Channel(s)                               : 4 channels
Channel positions                        : Front: L C R, Side: C
Sampling rate                            : 48.0 KHz
Bit depth                                : 24 bits
Compression mode                         : Lossy
Delay relative to video                  : 11ms
Stream size                              : 1.11 GiB (7%)
Title                                    : www.club-hd.com  >>  Inglés DTS
Language                                 : English
Default                                  : No
Forced                                   : No

Text #1
ID                                       : 5
Format                                   : UTF-8
Codec ID                                 : S_TEXT/UTF8
Codec ID/Info                            : UTF-8 Plain Text
Language                                 : Spanish
Default                                  : No
Forced                                   : No

Text #2
ID                                       : 6
Format                                   : UTF-8
Codec ID                                 : S_TEXT/UTF8
Codec ID/Info                            : UTF-8 Plain Text
Language                                 : English
Default                                  : No
Forced                                   : No

Menu
00:00:00.000                             : en:00:00:00.000
00:02:45.999                             : en:00:02:45.999
00:05:19.110                             : en:00:05:19.110
00:12:25.620                             : en:00:12:25.620
00:16:36.621                             : en:00:16:36.621
00:28:32.502                             : en:00:28:32.502
00:31:27.302                             : en:00:31:27.302
00:33:29.007                             : en:00:33:29.007
00:35:29.669                             : en:00:35:29.669
00:38:15.877                             : en:00:38:15.877
00:39:48.678                             : en:00:39:48.678
00:45:04.410                             : en:00:45:04.410
00:47:38.856                             : en:00:47:38.856
00:54:38.567                             : en:00:54:38.567
00:56:57.539                             : en:00:56:57.539
01:01:18.800                             : en:01:01:18.800
01:04:40.043                             : en:01:04:40.043
01:09:22.450                             : en:01:09:22.450
01:15:51.338                             : en:01:15:51.338
01:19:05.157                             : en:01:19:05.157
01:24:57.676                             : en:01:24:57.676
01:27:06.555                             : en:01:27:06.555
01:37:04.360                             : en:01:37:04.360
01:39:46.814                             : en:01:39:46.814




CONTRASE%C3%91A-FINAL.png



Código:
www.club-hd.com[/CENTER]




DESCARGA-FINAL.png



Todos los links son Intercambiables!


MEGA-BANNER.png

Tenemos TODO el material de Club-HD disponible por Mega, enlaces 100% activos y online hasta la fecha

Llévate tus cuentas Mega PRO III gratis con tu membresía VIP!
Todos los posts vivos con links de Mega.
Todo el material de Club-HD desbloqueado y sin publicidad.

Obtén más información sobre nuestras Membresías VIP



1FICHIER-VIP.png

Tenemos TODO el material de Club-HD disponible por Mega, enlaces 100% activos y online hasta la fecha

Llévate tus cuentas Mega PRO III gratis con tu membresía VIP!
Todos los posts vivos con links de Mega.
Todo el material de Club-HD desbloqueado y sin publicidad.

Obtén más información sobre nuestras Membresías VIP



UPLOADED_BANNER.png

Para ver este contenido oculto, debes dar click en el botón"Like", o cualquiera de las otras reacciones:

Me Gusta Me Gusta, Me Encanta Me Encanta, Jaja Jaja, Wow Wow, Triste Triste, Molesto Molesto


google-drive.png

Para ver este contenido oculto, debes dar click en el botón"Like", o cualquiera de las otras reacciones:

Me Gusta Me Gusta, Me Encanta Me Encanta, Jaja Jaja, Wow Wow, Triste Triste, Molesto Molesto
 
Última edición por un moderador:
Excelente pelicula maestro,cuando era pequeño me daba miedo esta pelicula pero ahora ya no ahora esta pelicula se ira a mi colección :D esperare la version 720p :D

gracias Revolver
 
Última edición:
Perfecto Maestro todo un Clásico, y una de las primeras películas que vi de Johnny Depp.:aplausos::aplausos:

GRACIAS MISTER R21!!!:dplgar:
 
Espectacular aporte y a seguir con la coleccion de james bond!!! Gracias sos lo mas!!
 
Un super Clasico de Tim Burton, se agradece el aporte espero que saquen la versión 720p :D
 
Volver