El Gringo (2012) 720p Audio Inglés [Subt. Esp] (Acción)

Maestro Revolver

Well-known member
Miembro del Staff
Administrador
Registro
9 Ago 2012
Mensajes
3.569
Reacciones
59.350
Puntos
113

Reputation:









TÍTULO ORIGINAL: El Gringo
AÑO: 2012
DURACIÓN: 102 min.
PAÍS: USA
DIRECTOR: Eduardo Rodriguez
GUIÓN: Jonathan W. Stokes
REPARTO: Scott Adkins, Christian Slater, Yvette Yates, Israel Islas, Erando González, Sofía Sisniega, Valentin Ganev, Darren Shahlavi, Matt Mullins, Bashar Rahal, Zahary Baharov
PRODUCTORA: After Dark Films / Silver Pictures
GÉNERO: Acción
: http://www.imdb.com/title/tt1990216/






Una historia de acción centrada en un hombre herido que cruza la frontera hacia México con un par de millones de dólares en efectivo y un plan para retirarse en Acapulco.
























La pelicula NO tiene ninguna marca... solo colocamos el nombre de esta web en las capturas






Código:
General
Format                                   : Matroska
Format version                           : Version 2
File size                                : 3.62 GiB
Duration                                 : 1h 38mn
Overall bit rate                         : 5 253 Kbps
Movie name                               : www.club-hd.com
Encoded date                             : UTC 2013-01-21 21:47:38
Writing application                      : mkvmerge v5.7.0 ('The Whirlwind') built on Jul  8 2012 20:08:51
Writing library                          : libebml v1.2.3 + libmatroska v1.3.0

Video
ID                                       : 1
Format                                   : AVC
Format/Info                              : Advanced Video Codec
Format profile                           : High@L4.1
Format settings, CABAC                   : Yes
Format settings, ReFrames                : 5 frames
Codec ID                                 : V_MPEG4/ISO/AVC
Duration                                 : 1h 38mn
Bit rate                                 : 4 803 Kbps
Width                                    : 1 280 pixels
Height                                   : 544 pixels
Display aspect ratio                     : 2.35:1
Frame rate mode                          : Constant
Frame rate                               : 23.976 fps
Color space                              : YUV
Chroma subsampling                       : 4:2:0
Bit depth                                : 8 bits
Scan type                                : Progressive
Bits/(Pixel*Frame)                       : 0.288
Stream size                              : 3.24 GiB (89%)
Title                                    : www.club-hd.com
Writing library                          : x264 core 129 r2230 1cffe9f
Language                                 : English
Default                                  : Yes
Forced                                   : No

Audio
ID                                       : 2
Format                                   : AC-3
Format/Info                              : Audio Coding 3
Mode extension                           : CM (complete main)
Format settings, Endianness              : Big
Codec ID                                 : A_AC3
Duration                                 : 1h 38mn
Bit rate mode                            : Constant
Bit rate                                 : 448 Kbps
Channel(s)                               : 6 channels
Channel positions                        : Front: L C R, Side: L R, LFE
Sampling rate                            : 48.0 KHz
Bit depth                                : 16 bits
Compression mode                         : Lossy
Stream size                              : 316 MiB (9%)
Title                                    : www.club-hd.com
Language                                 : English
Default                                  : Yes
Forced                                   : No

Text
ID                                       : 3
Format                                   : UTF-8
Codec ID                                 : S_TEXT/UTF8
Codec ID/Info                            : UTF-8 Plain Text
Title                                    : www.club-hd.com
Language                                 : Spanish
Default                                  : Yes
Forced                                   : No










Enlaces de Mega y Fireload solo disponibles para Miembros VIP

Compra tu Membresía VIP y apoya a Club-HD!

ATENCIÓN! Tenemos TODO el material de Club-HD disponible por Mega y Fireload, enlaces 100% activos y online hasta la fecha

Llévate tus cuentas Mega PRO II gratis con tu membresía VIP!
Todos los posts vivos con links de Mega y Fireload.
Todo el material de Club-HD desbloqueado y sin publicidad.

Click Aquí para más información.




Enlaces de Mega y Fireload solo disponibles para Miembros VIP

Compra tu Membresía VIP y apoya a Club-HD!

ATENCIÓN! Tenemos TODO el material de Club-HD disponible por Mega y Fireload, enlaces 100% activos y online hasta la fecha

Llévate tus cuentas Mega PRO II gratis con tu membresía VIP!
Todos los posts vivos con links de Mega y Fireload.
Todo el material de Club-HD desbloqueado y sin publicidad.

Click Aquí para más información.



Para ver este contenido oculto, debes dar click en una de las siguientes reacciones : Like Like, Love Love, Haha Haha, Wow Wow, Sad Sad, Angry Angry
 
Última edición:

sharklui

Well-known member
Miembro VIP
Registro
28 Ago 2012
Mensajes
1.026
Reacciones
271
Puntos
83
Ubicación
The Matrix

Reputation:

Hurr4h
Por fin soy el primero en responder un post tuyo, con la cantidad de miembros de semejante club es muy dificil ser el primero, a pesar de actualizar esta pagina todo el tiempo que puedo estar en mi casa al salir de trabajar siempre se me han adelantado, te felicito por tu gran gran gran dedicacion :aplausos: te aseguro que esta pagina me ha costado ya bastante dinero en discos externos de 2, 3 y 4 TB (mi ultima adquisicion) sin contar los internos de 2 TB, en conjunto con premium de Uploaded :bsrs:, pero todo vale la pena por tener los aportes de tan alta calidad que compartes con todos nosotros
:thank-you:, Exitos, Bendiciones y Mucho Ancho de Banda para ti :thank-you:
 

telmoed

Member
Registro
27 Ago 2012
Mensajes
145
Reacciones
4
Puntos
18
Edad
41

Reputation:

gracias, buen aporte por fin salio HD... si falta almacenamiento lo bueno es una grabadora de bluray.. se compra unos cuantos bd virgenes y le das candela grabando, yo compre 75 bd virgenes y los tengo casi liquidados... entre m720p, 720, 1080p, bdremux, archivos flac de 24 bits 88khz y isos de sacd, el disco de 500gb no aguanta...
 

Alejorey

New member
Registro
31 Ago 2012
Mensajes
97
Reacciones
0
Puntos
0
Edad
49

Reputation:

Gracias como siempre sacando la casta ante las movies felicidaeds y muchas gracias de nuevo...
 

Usuarios Que Están Viendo Este Tema (Total: 1, Miembros: 0, Invitados: 1)

Arriba