El laberinto del fauno (2006) 1080p BDRip Audio Español (Fantástico. Terror)

Maestro Revolver

Administrador
Registro
9 Ago 2012
Mensajes
3.157
Reacciones (ptje)
54.886


El-laberinto-del-fauno-1080p.jpg





FichaTecnica.jpg


TÍTULO ORIGINAL: El laberinto del fauno
AÑO: 2006
DURACIÓN: 112 min.
PAÍS: España
DIRECTOR: Guillermo del Toro
GUIÓN: Guillermo del Toro
REPARTO: Ivana Baquero, Sergi López, Maribel Verdú, Doug Jones, Ariadna Gil, Álex Angulo, Federico Luppi, Roger Casamajor, Fernando Tielve, Pepa Pedroche, José Luis Torrijo
PRODUCTORA: Coproducción España-México-USA; Estudios Picasso Fábrica de Ficción / Tequila Gang / Tele5 / Sententia Entertainment
GÉNERO: Fantástico. Terror. Thriller. Drama | Vida rural. Años 40. Posguerra española. Monstruos
imdb-logo.png
: http://www.imdb.com/title/tt0457430/

PREMIOS: 2006: 3 Oscars: Mejor fotografía, dirección artística, maquillaje. 6 Nominaciones
2006: Nominación al Globos de oro: Mejor película de habla no inglesa
2006: 7 Premios Goya, entre ellos guión original, actriz revelación (Baquero)
2006: 3 Premios BAFTA: Mejor vestuario, maquillaje 7 película de habla no inglesa. 8 nom.
2006: Festival de Cannes: Nominada a la Palma de Oro (mejor película)
2006: Círculo de críticos de Nueva York: Mejor director
2006: Asociación de Críticos de Los Angeles: Mejor diseño de producción




Sinopsis.jpg


Año 1944, posguerra española. Ofelia (Ivana Baquero) y su madre, Carmen (Ariadna Gil), que se encuentra en avanzado estado de gestación, se trasladan a un pequeño pueblo al que ha sido destinado el nuevo marido de Carmen, Vidal (Sergi López), un cruel capitán del ejército franquista por el que la niña no siente ningún afecto. La misión de Vidal es acabar con los últimos miembros de la resistencia republicana que permanecen escondidos en los montes de la zona. Otros personajes son: Mercedes (Maribel Verdú), el ama de llaves, y el médico (Álex Angulo) que se hará cargo del delicado estado de salud de Carmen. Una noche, Ofelia descubre las ruinas de un laberinto, y allí se encuentra con un fauno (Doug Jones), una extraña criatura que le hace una sorprendente revelación: ella es en realidad una princesa, la última de su estirpe, y los suyos la esperan desde hace mucho tiempo. Para poder regresar a su mágico reino, la niña deberá enfrentarse a tres pruebas.




Trailer.jpg






Capturas.jpg


1.jpg


2.jpg


3.jpg


4.jpg


5.jpg


6.jpg


La pelicula NO tiene ninguna marca... solo colocamos el nombre de esta web en las capturas




MediaInfo.jpg


Código:
General
Format                                   : Matroska
Format version                           : Version 2
File size                                : 13.6 GiB
Duration                                 : 1h 58mn
Overall bit rate                         : 16.4 Mbps
Movie name                               : www.club-hd.com
Encoded date                             : UTC 2013-01-27 23:30:38
Writing application                      : mkvmerge v5.7.0 ('The Whirlwind') built on Jul  8 2012 20:08:51
Writing library                          : libebml v1.2.3 + libmatroska v1.3.0

Video
ID                                       : 1
Format                                   : AVC
Format/Info                              : Advanced Video Codec
Format profile                           : [email protected]
Format settings, CABAC                   : Yes
Format settings, ReFrames                : 4 frames
Codec ID                                 : V_MPEG4/ISO/AVC
Duration                                 : 1h 58mn
Bit rate                                 : 14.7 Mbps
Width                                    : 1 920 pixels
Height                                   : 1 038 pixels
Display aspect ratio                     : 1.85:1
Frame rate mode                          : Constant
Frame rate                               : 23.976 fps
Color space                              : YUV
Chroma subsampling                       : 4:2:0
Bit depth                                : 8 bits
Scan type                                : Progressive
Bits/(Pixel*Frame)                       : 0.308
Stream size                              : 12.0 GiB (88%)
Title                                    : www.club-hd.com
Writing library                          : x264 core 80 r1376M 3feaec2
Language                                 : Spanish
Default                                  : Yes
Forced                                   : No

Audio #1
ID                                       : 2
Format                                   : AC-3
Format/Info                              : Audio Coding 3
Mode extension                           : CM (complete main)
Format settings, Endianness              : Big
Codec ID                                 : A_AC3
Duration                                 : 1h 58mn
Bit rate mode                            : Constant
Bit rate                                 : 640 Kbps
Channel(s)                               : 6 channels
Channel positions                        : Front: L C R, Side: L R, LFE
Sampling rate                            : 48.0 KHz
Bit depth                                : 16 bits
Compression mode                         : Lossy
Stream size                              : 545 MiB (4%)
Title                                    : www.club-hd.com  >>  Español AC3
Language                                 : Spanish
Default                                  : Yes
Forced                                   : No

Audio #2
ID                                       : 3
Format                                   : DTS
Format/Info                              : Digital Theater Systems
Mode                                     : 16
Format settings, Endianness              : Big
Codec ID                                 : A_DTS
Duration                                 : 1h 58mn
Bit rate mode                            : Constant
Bit rate                                 : 768 Kbps
Channel(s)                               : 6 channels
Channel positions                        : Front: L C R, Side: L R, LFE
Sampling rate                            : 48.0 KHz
Bit depth                                : 24 bits
Compression mode                         : Lossy
Stream size                              : 653 MiB (5%)
Title                                    : www.club-hd.com  >>  Español DTS
Language                                 : Spanish
Default                                  : No
Forced                                   : No

Audio #3
ID                                       : 4
Format                                   : AC-3
Format/Info                              : Audio Coding 3
Mode extension                           : CM (complete main)
Format settings, Endianness              : Big
Codec ID                                 : A_AC3
Duration                                 : 1h 58mn
Bit rate mode                            : Constant
Bit rate                                 : 224 Kbps
Channel(s)                               : 2 channels
Channel positions                        : Front: L R
Sampling rate                            : 48.0 KHz
Bit depth                                : 16 bits
Compression mode                         : Lossy
Stream size                              : 191 MiB (1%)
Title                                    : Commentary by Guillermo del Toro
Language                                 : English
Default                                  : No
Forced                                   : No




Descarga.jpg




google-drive-vip.png


Tenemos TODO el material de Club-HD disponible por Mega, enlaces 100% activos y online hasta la fecha

Llévate tus cuentas Mega PRO III gratis con tu membresía VIP!
Todos los posts vivos con links de Mega.
Todo el material de Club-HD desbloqueado y sin publicidad.

Obtén más información sobre nuestras Membresías VIP




MEGA.jpg

Tenemos TODO el material de Club-HD disponible por Mega, enlaces 100% activos y online hasta la fecha

Llévate tus cuentas Mega PRO III gratis con tu membresía VIP!
Todos los posts vivos con links de Mega.
Todo el material de Club-HD desbloqueado y sin publicidad.

Obtén más información sobre nuestras Membresías VIP


1FICHIER-VIP.png

Tenemos TODO el material de Club-HD disponible por Mega, enlaces 100% activos y online hasta la fecha

Llévate tus cuentas Mega PRO III gratis con tu membresía VIP!
Todos los posts vivos con links de Mega.
Todo el material de Club-HD desbloqueado y sin publicidad.

Obtén más información sobre nuestras Membresías VIP


up.jpg

Para ver este contenido oculto, debes dar click en el botón"Like", o cualquiera de las otras reacciones:

Me Gusta Me Gusta, Me Encanta Me Encanta, Jaja Jaja, Wow Wow, Triste Triste, Molesto Molesto
 
Última edición por un moderador:
Volver