El orfanato (2007) 720p Audio Español (Terror. Intriga)

Maestro Revolver

Administrador
Registro
9 Ago 2012
Mensajes
3.157
Reacciones (ptje)
54.885


El-Orfanato.jpg




FICHA_TECNICA.png


TÍTULO ORIGINAL: El orfanato
AÑO: 2007
DURACIÓN: 100 min.
PAÍS: España
DIRECTOR: Juan Antonio Bayona
GUIÓN: Sergio G. Sánchez
REPARTO: Belén Rueda, Fernando Cayo, Géraldine Chaplin, Roger Príncep, Mabel Rivera, Montserrat Carulla, Andrés Gertrúdix, Edgar Vivar, Óscar Casas
PRODUCTORA: Rodar y Rodar
GÉNERO: Terror. Intriga. Fantástico | Sobrenatural. Casas encantadas
imdb-logo.png
: http://www.imdb.com/title/tt0464141/

PREMIOS: 2007: 7 Premios Goya: incluyendo mejor director novel y mejor guión. 14 nominaciones
2007: Festival de Sitges: Sección oficial largometrajes a concurso




SINOPSIS.png


Laura se instala con su familia en el orfanato en el que creció de niña. Su propósito es abrir una residencia para niños discapacitados. El ambiente del viejo caserón despierta la imaginación de su hijo, que empieza a dejarse arrastrar por la fantasía. Los juegos del niño inquietan cada vez más a Laura, que empieza a sospechar que en la casa hay algo que amenaza su familia.




TRAILER.png






CAPTURAS.png


1.jpg


2.jpg


3.jpg


4.jpg


5.jpg


6.jpg


La pelicula NO tiene ninguna marca... solo colocamos el nombre de esta web en las capturas




DATOS_TECNICOS.png


Código:
General
Format                                   : Matroska
Format version                           : Version 2
File size                                : 3.57 GiB
Duration                                 : 1h 45mn
Overall bit rate                         : 4 835 Kbps
Movie name                               : www.club-hd.com
Encoded date                             : UTC 2012-12-22 00:41:22
Writing application                      : mkvmerge v5.7.0 ('The Whirlwind') built on Jul  8 2012 20:08:51
Writing library                          : libebml v1.2.3 + libmatroska v1.3.0
Attachment                               : Yes / Yes / Yes / Yes / Yes

Video
ID                                       : 1
Format                                   : AVC
Format/Info                              : Advanced Video Codec
Format profile                           : [email protected]
Format settings, CABAC                   : Yes
Format settings, ReFrames                : 10 frames
Codec ID                                 : V_MPEG4/ISO/AVC
Duration                                 : 1h 45mn
Bit rate                                 : 4 385 Kbps
Width                                    : 1 280 pixels
Height                                   : 546 pixels
Display aspect ratio                     : 2.35:1
Frame rate mode                          : Constant
Frame rate                               : 23.976 fps
Color space                              : YUV
Chroma subsampling                       : 4:2:0
Bit depth                                : 8 bits
Scan type                                : Progressive
Bits/(Pixel*Frame)                       : 0.262
Stream size                              : 3.17 GiB (89%)
Title                                    : www.club-hd.com
Writing library                          : x264 core 58 svn-736M
Language                                 : Spanish
Default                                  : Yes
Forced                                   : No

Audio
ID                                       : 2
Format                                   : AC-3
Format/Info                              : Audio Coding 3
Mode extension                           : CM (complete main)
Format settings, Endianness              : Big
Codec ID                                 : A_AC3
Duration                                 : 1h 45mn
Bit rate mode                            : Constant
Bit rate                                 : 448 Kbps
Channel(s)                               : 6 channels
Channel positions                        : Front: L C R, Side: L R, LFE
Sampling rate                            : 48.0 KHz
Bit depth                                : 16 bits
Compression mode                         : Lossy
Stream size                              : 339 MiB (9%)
Title                                    : www.club-hd.com
Language                                 : Spanish (España)
Default                                  : Yes
Forced                                   : No




Descarga.png





google-drive-vip.png


Tenemos TODO el material de Club-HD disponible por Mega, enlaces 100% activos y online hasta la fecha

Llévate tus cuentas Mega PRO III gratis con tu membresía VIP!
Todos los posts vivos con links de Mega.
Todo el material de Club-HD desbloqueado y sin publicidad.

Obtén más información sobre nuestras Membresías VIP



MEGA.jpg

Tenemos TODO el material de Club-HD disponible por Mega, enlaces 100% activos y online hasta la fecha

Llévate tus cuentas Mega PRO III gratis con tu membresía VIP!
Todos los posts vivos con links de Mega.
Todo el material de Club-HD desbloqueado y sin publicidad.

Obtén más información sobre nuestras Membresías VIP



UPLOADED.TO_BANNER.png

Para ver este contenido oculto, debes dar click en el botón"Like", o cualquiera de las otras reacciones:

Me Gusta Me Gusta, Me Encanta Me Encanta, Jaja Jaja, Wow Wow, Triste Triste, Molesto Molesto
 
Última edición por un moderador:
excelente pelicula de terror, aunque ya tiene rato pero es buena pelicula, gracias revolver
 
Tremenda peliculaaaa!!! Y este pibe me recuerda a mi, cuando yo no habia conseguido la mascara de hockey o no?
images

images
 
Volver