Elf (2003) 720p Dual Latino-Inglés [Subt. Esp-Ing] (Comedia. Fantástico)

Maestro Revolver

Well-known member
Miembro del Staff
Administrador
Registro
9 Ago 2012
Mensajes
3.569
Reacciones
59.341
Puntos
113

Reputation:










TÍTULO ORIGINAL: Elf
AÑO: 2003
DURACIÓN: 95 min.
PAÍS: USA
DIRECTOR: Jon Favreau
GUIÓN: David Berenbaum
REPARTO: Will Ferrell, James Caan, Zooey Deschanel, Mary Steenburgen, Daniel Tay, Edward Asner, Bob Newhart, Jon Favreau, Peter Dinklage
PRODUCTORA: New Line Cinema
GÉNERO: Comedia. Fantástico | Navidad
: http://www.imdb.com/title/tt0319343/






Una Nochebuena, en un orfanato, un bebé gatea dentro de un saco de regalos de Santa Claus y acaba en su taller del Polo Norte. Es adoptado y educado como un elfo, pero, al crecer, se hace tres veces más grande que los demás. En estas circunstancias, se decide que lo mejor para él será encontrar a su familia. Con esta intención viaja a Nueva York, donde descubrirá que la vida no consiste sólo en patinar y comer dulces; así que vuelve a sentirse otra vez fuera lugar. Consigue primero encontrar a su padre (James Caan), un editor de libros infantiles, adicto al trabajo y al dinero, que figura en la lista negra de Santa Claus. Después encuentra una nueva madre (Mary Steenburgen) y descubre que su hermanastro de diez años (Daniel Tay) no cree en los elfos ni en Santa Claus ni en las Navidades. En realidad, todo el mundo parece haber olvidado el significado de esa fiesta. Cuando La Navidad se acerca, nuestro personaje decide aprovechar su conocimiento del mundo de los elfos para ganarse el amor de su familia y, además, salvar el espíritu navideño tanto en Nueva York como en el resto del mundo.




















La pelicula NO tiene ninguna marca... solo colocamos el nombre de esta web en las capturas






Código:
General
Complete name                            : Elf (2003) 720p BDRip Dual Latino-Inglés [Subt. Esp].mkv
Format                                   : Matroska
Format version                           : Version 4 / Version 2
File size                                : 4.67 GiB
Duration                                 : 1h 36mn
Overall bit rate                         : 6 917 Kbps
Movie name                               : www.club-hd.com --> Elf (2003) 720p BDRip Dual Latino-Inglés [Subt. Esp]
Encoded date                             : UTC 2014-12-23 19:43:04
Writing application                      : mkvmerge v7.1.0 ('Good Love') 64bit built on Jul 27 2014 13:06:55
Writing library                          : libebml v1.3.0 + libmatroska v1.4.1

Video
ID                                       : 1
Format                                   : AVC
Format/Info                              : Advanced Video Codec
Format profile                           : High@L3.1
Format settings, CABAC                   : Yes
Format settings, ReFrames                : 5 frames
Codec ID                                 : V_MPEG4/ISO/AVC
Duration                                 : 1h 36mn
Bit rate                                 : 5 827 Kbps
Width                                    : 1 280 pixels
Height                                   : 720 pixels
Display aspect ratio                     : 16:9
Frame rate mode                          : Constant
Frame rate                               : 23.976 fps
Color space                              : YUV
Chroma subsampling                       : 4:2:0
Bit depth                                : 8 bits
Scan type                                : Progressive
Bits/(Pixel*Frame)                       : 0.264
Stream size                              : 3.84 GiB (82%)
Title                                    : Elf (2003) 720p BDRip Dual Latino-Inglés [Subt. Esp]
Writing library                          : x264 core 65 r999 cc51047
Language                                 : English
Default                                  : Yes
Forced                                   : No

Audio #1
ID                                       : 2
Format                                   : AC-3
Format/Info                              : Audio Coding 3
Mode extension                           : CM (complete main)
Format settings, Endianness              : Big
Codec ID                                 : A_AC3
Duration                                 : 1h 36mn
Bit rate mode                            : Constant
Bit rate                                 : 448 Kbps
Channel(s)                               : 6 channels
Channel positions                        : Front: L C R, Side: L R, LFE
Sampling rate                            : 48.0 KHz
Bit depth                                : 16 bits
Compression mode                         : Lossy
Stream size                              : 310 MiB (6%)
Title                                    : Elf (2003) - Español Latino AC3 5.1 - 448 Kbps
Language                                 : Spanish
Default                                  : Yes
Forced                                   : No

Audio #2
ID                                       : 3
Format                                   : AC-3
Format/Info                              : Audio Coding 3
Mode extension                           : CM (complete main)
Format settings, Endianness              : Big
Codec ID                                 : A_AC3
Duration                                 : 1h 36mn
Bit rate mode                            : Constant
Bit rate                                 : 640 Kbps
Channel(s)                               : 6 channels
Channel positions                        : Front: L C R, Side: L R, LFE
Sampling rate                            : 48.0 KHz
Bit depth                                : 16 bits
Compression mode                         : Lossy
Stream size                              : 443 MiB (9%)
Title                                    : Elf (2003) - Inglés AC3 5.1 - 640 Kbps
Language                                 : English
Default                                  : No
Forced                                   : No

Text
ID                                       : 4
Format                                   : UTF-8
Codec ID                                 : S_TEXT/UTF8
Codec ID/Info                            : UTF-8 Plain Text
Title                                    : Elf (2003) - Subtítulos Español
Language                                 : Spanish
Default                                  : No
Forced                                   : No




Contraseña

Código:
[CENTER][SIZE=5]
www.club-hd.com[/SIZE][/CENTER]









Enlaces de Mega y Fireload solo disponibles para Miembros VIP

Compra tu Membresía VIP y apoya a Club-HD!

ATENCIÓN! Tenemos TODO el material de Club-HD disponible por Mega y Fireload, enlaces 100% activos y online hasta la fecha

Llévate tus cuentas Mega PRO II gratis con tu membresía VIP!
Todos los posts vivos con links de Mega y Fireload.
Todo el material de Club-HD desbloqueado y sin publicidad.

Click Aquí para más información.




Enlaces de Mega y Fireload solo disponibles para Miembros VIP

Compra tu Membresía VIP y apoya a Club-HD!

ATENCIÓN! Tenemos TODO el material de Club-HD disponible por Mega y Fireload, enlaces 100% activos y online hasta la fecha

Llévate tus cuentas Mega PRO II gratis con tu membresía VIP!
Todos los posts vivos con links de Mega y Fireload.
Todo el material de Club-HD desbloqueado y sin publicidad.

Click Aquí para más información.



Enlaces de Mega y Fireload solo disponibles para Miembros VIP

Compra tu Membresía VIP y apoya a Club-HD!

ATENCIÓN! Tenemos TODO el material de Club-HD disponible por Mega y Fireload, enlaces 100% activos y online hasta la fecha

Llévate tus cuentas Mega PRO II gratis con tu membresía VIP!
Todos los posts vivos con links de Mega y Fireload.
Todo el material de Club-HD desbloqueado y sin publicidad.

Click Aquí para más información.



Para ver este contenido oculto, debes dar click en una de las siguientes reacciones : Like Like, Love Love, Haha Haha, Wow Wow, Sad Sad, Angry Angry



Para ver este contenido oculto, debes dar click en una de las siguientes reacciones : Like Like, Love Love, Haha Haha, Wow Wow, Sad Sad, Angry Angry



Para ver este contenido oculto, debes dar click en una de las siguientes reacciones : Like Like, Love Love, Haha Haha, Wow Wow, Sad Sad, Angry Angry
 
Última edición:

Usuarios Que Están Viendo Este Tema (Total: 1, Miembros: 0, Invitados: 1)

Arriba