• Buenos dias amigos del club. Les queremos avisar que ya recuperamos el acceso a las webs de las Membresías VIP y del Paste. Asi que ya pueden comprar sus membresías y descargar todos los estrenos nuevamente.

Elieen (2023) 1080p BDRip Latino (Drama. Thriller. Años 60)

LuchoO

責任者

Moderador
Uploader
Registro
15 Ago 2015
Mensajes
2.002
Reacciones (ptje)
29.887

cover.png


FICHA.TECNICA.png


Captura.JPG


SINOPSIS.PNG



Boston, años 60. Eileen es una chica atrapada entre un hogar lúgubre con un padre alcohólico y su empleo en una prisión, donde sus compañeros la han condenado al ostracismo. Cuando una guapa y magnética mujer se une al personal de la prisión, Eileen es incapaz de resistirse a esa milagrosa e incipiente amistad. Pero esa amistad la involucrará en un crimen que alterará todo.

6.0


TRAILER.PNG



CAPTURAS.PNG


e.0001.jpeg


e.0002.jpeg


e.0003.jpeg


e.0004.jpeg



MEDIAINFO.PNG

=================================
Audio Latino de Max.com sincronizado para BDRip
=================================
General
Complete name : Eileen 2023 BDRip 1080p H264 Dual.mkv
Format : Matroska
Format version : Version 4
File size : 13.8 GiB
Duration : 1 h 37 min
Overall bit rate : 20.3 Mb/s
Frame rate : 23.976 FPS
Movie name : [Club-HD] Eileen 2023 BDRip 1080p H264 Dual.mkv
Encoded date : 2024-07-07 05:18:37 UTC
Writing application : mkvmerge v77.0 ('Elemental') 64-bit
Writing library : libebml v1.4.4 + libmatroska v1.7.1

Video
ID : 1
Format : AVC
Format/Info : Advanced Video Codec
Format profile : [email protected]
Format settings : CABAC / 4 Ref Frames
Format settings, CABAC : Yes
Format settings, Reference frames : 4 frames
Codec ID : V_MPEG4/ISO/AVC
Duration : 1 h 37 min
Bit rate : 19.0 Mb/s
Width : 1 784 pixels
Height : 1 080 pixels
Display aspect ratio : 5:3
Frame rate mode : Constant
Frame rate : 23.976 (24000/1001) FPS
Color space : YUV
Chroma subsampling : 4:2:0
Bit depth : 8 bits
Scan type : Progressive
Bits/(Pixel*Frame) : 0.412
Stream size : 12.9 GiB (94%)
Writing library : x264 core 164 r3107 a8b68eb
Encoding settings : cabac=1 / ref=4 / deblock=1:-3:-3 / analyse=0x3:0x133 / me=tesa / subme=11 / psy=1 / psy_rd=1.10:0.00 / mixed_ref=1 / me_range=48 / chroma_me=1 / trellis=2 / 8x8dct=1 / cqm=0 / deadzone=21,11 / fast_pskip=0 / chroma_qp_offset=-2 / threads=34 / lookahead_threads=8 / sliced_threads=0 / nr=0 / decimate=0 / interlaced=0 / bluray_compat=0 / constrained_intra=0 / bframes=10 / b_pyramid=2 / b_adapt=2 / b_bias=0 / direct=3 / weightb=1 / open_gop=0 / weightp=2 / keyint=240 / keyint_min=22 / scenecut=40 / intra_refresh=0 / rc_lookahead=120 / rc=crf / mbtree=0 / crf=18.3 / qcomp=0.60 / qpmin=0 / qpmax=69 / qpstep=4 / vbv_maxrate=62500 / vbv_bufsize=78125 / crf_max=0.0 / nal_hrd=none / filler=0 / ip_ratio=1.25 / pb_ratio=1.18 / aq=3:0.72 / zones=133640,140031,crf=23
Default : Yes
Forced : No

Audio #1
ID : 2
Format : AC-3
Format/Info : Audio Coding 3
Commercial name : Dolby Digital
Codec ID : A_AC3
Duration : 1 h 37 min
Bit rate mode : Constant
Bit rate : 256 kb/s
Channel(s) : 2 channels
Channel layout : L R
Sampling rate : 48.0 kHz
Frame rate : 31.250 FPS (1536 SPF)
Compression mode : Lossy
Stream size : 178 MiB (1%)
Language : Spanish (Latin America)
Service kind : Complete Main
Default : Yes
Forced : No

Audio #2
ID : 3
Format : E-AC-3
Format/Info : Enhanced AC-3
Commercial name : Dolby Digital Plus
Codec ID : A_EAC3
Duration : 1 h 37 min
Bit rate mode : Constant
Bit rate : 1 024 kb/s
Channel(s) : 6 channels
Channel layout : L R C LFE Ls Rs
Sampling rate : 48.0 kHz
Frame rate : 31.250 FPS (1536 SPF)
Compression mode : Lossy
Stream size : 713 MiB (5%)
Language : English
Service kind : Complete Main
Default : No
Forced : No

Text #1
ID : 4
Format : UTF-8
Codec ID : S_TEXT/UTF8
Codec ID/Info : UTF-8 Plain Text
Duration : 1 h 25 min
Bit rate : 57 b/s
Frame rate : 0.252 FPS
Count of elements : 1300
Stream size : 36.0 KiB (0%)
Language : English
Default : No
Forced : No

Text #2
ID : 5
Format : UTF-8
Codec ID : S_TEXT/UTF8
Codec ID/Info : UTF-8 Plain Text
Duration : 1 h 36 min
Bit rate : 59 b/s
Frame rate : 0.275 FPS
Count of elements : 1593
Stream size : 42.2 KiB (0%)
Title : SDH
Language : English
Default : No
Forced : No

Text #3
ID : 6
Format : UTF-8
Codec ID : S_TEXT/UTF8
Codec ID/Info : UTF-8 Plain Text
Duration : 1 h 23 min
Bit rate : 57 b/s
Frame rate : 0.192 FPS
Count of elements : 961
Stream size : 35.1 KiB (0%)
Title : Canadian
Language : French (CA)
Default : No
Forced : No

Text #4
ID : 7
Format : UTF-8
Codec ID : S_TEXT/UTF8
Codec ID/Info : UTF-8 Plain Text
Duration : 1 h 23 min
Bit rate : 51 b/s
Frame rate : 0.221 FPS
Count of elements : 1108
Stream size : 31.3 KiB (0%)
Title : Brazilian
Language : Portuguese (BR)
Default : No
Forced : No

Text #5
ID : 8
Format : UTF-8
Codec ID : S_TEXT/UTF8
Codec ID/Info : UTF-8 Plain Text
Duration : 1 h 23 min
Bit rate : 52 b/s
Frame rate : 0.222 FPS
Count of elements : 1114
Stream size : 32.2 KiB (0%)
Title : Castilian
Language : Spanish (CA)
Default : No
Forced : No

Text #6
ID : 9
Format : UTF-8
Codec ID : S_TEXT/UTF8
Codec ID/Info : UTF-8 Plain Text
Duration : 1 h 23 min
Bit rate : 52 b/s
Frame rate : 0.225 FPS
Count of elements : 1129
Stream size : 32.2 KiB (0%)
Title : Latin American
Language : Spanish (LA)
Default : No
Forced : No

Menu
00:00:00.000 : en:Chapter 01
00:12:01.011 : en:Chapter 02
00:25:23.188 : en:Chapter 03
00:44:05.392 : en:Chapter 04
00:55:38.793 : en:Chapter 05
01:03:47.240 : en:Chapter 06
01:12:03.610 : en:Chapter 07
01:30:56.617 : en:Chapter 08

DESCARGA.PNG


⭐ 1 LINK MKV VIP ⭐

Mega.png

Tenemos TODO el material de Club-HD disponible por Mega, enlaces 100% activos y online hasta la fecha

Llévate tus cuentas Mega PRO III gratis con tu membresía VIP!
Todos los posts vivos con links de Mega.
Todo el material de Club-HD desbloqueado y sin publicidad.

Obtén más información sobre nuestras Membresías VIP

LINKS FREE PÚBLICOS

mega_free.png


¡Click aquí para descargar desde 1cloudfile!

"Solo Audio Latino"
 
Hola! Antes que nada gracias por el aporte, pero los links públicos están caídos.
 
Volver