• Buenos dias amigos del club. Les queremos avisar que ya recuperamos el acceso a las webs de las Membresías VIP y del Paste. Asi que ya pueden comprar sus membresías y descargar todos los estrenos nuevamente.

Eminem - Live From New York City (2005) 720p BDRip [AC3 5.1] [DTS] (Concierto)

Maestro Revolver

Administrador
Registro
9 Ago 2012
Mensajes
3.157
Reacciones (ptje)
55.322
Aporte recuperado gracias a nuestro amigo HemoAr

Eminem-2005.jpg




FICHA_TECNICA.png


Interprete: Eminem.
Estilo: Rap.
Año: 2005.
Duración: 78 min.
Nacionalidad: USA.
Audio: Inglés (Dolby Digital 5.1 DTS Master Audio).
Subtitulos: No Dispone.
Distribuidora: Producciones JRB
Lanzamiento: 03/02/2010.


SINOPSIS.png


Filmado en el Madison Square Garden en 2005, este espectáculo captura laexperiencia completa de Eminem en vivo. Con apariciones de D12, Obie Trice y Stat Quo, el concierto cuenta con todos los éxitos clásicos de Eminem como Just Lose It,Cleaning Out My Closet, de The Way I Am, Stan, Lose Yourself, y muchos más.



Track Listing:
01. Evil Deeds
02. Mosh
03. Business
04. Rain Man
05. Ass Like That
06. Puke
07. Kill You
08. Like Toy Soldiers
09. Lodi Dodi
10. Just A Friend
11. Nuthin But A G Thing
12. My Name Is
13. Git Up (with D12)
14. How Come (with D12)
15. Rock Star (Bizarre)
16. 40oz (with D12)
17. My Band (with D12)
18. Stan
19. The Way I Am
20. Just Don't Give A F**k
21. Got Some Teeth (Obie Trice and Eminem)
22. Stay 'Bout It (Obie Trice and Stat Quo)
23. The Set Up (Obie Trice and Stat Quo)
24. Like Dat (Stat Quo and Obie Trice)
25. Cleaning Out My Closet
26. Mockingbird
27. Just Lose It
28. Lose Yourself




TRAILER.png






CAPTURAS.png


1.jpg


2.jpg


3.jpg


4.jpg


5.jpg


6.jpg


7.jpg


8.jpg






DATOS_TECNICOS.png

Código:
General
Format                                   : Matroska
Format version                           : Version 2
File size                                : 5.70 GiB
Duration                                 : 1h 18mn
Overall bit rate                         : 10.4 Mbps
Movie name                               : www.club-hd.com
Encoded date                             : UTC 2013-01-06 01:23:45
Writing application                      : mkvmerge v5.7.0 ('The Whirlwind') built on Jul  8 2012 20:08:51
Writing library                          : libebml v1.2.3 + libmatroska v1.3.0

Video
ID                                       : 1
Format                                   : AVC
Format/Info                              : Advanced Video Codec
Format profile                           : [email protected]
Format settings, CABAC                   : Yes
Format settings, ReFrames                : 9 frames
Codec ID                                 : V_MPEG4/ISO/AVC
Duration                                 : 1h 18mn
Bit rate                                 : 7 997 Kbps
Width                                    : 1 280 pixels
Height                                   : 720 pixels
Display aspect ratio                     : 16:9
Frame rate mode                          : Constant
Frame rate                               : 29.970 fps
Color space                              : YUV
Chroma subsampling                       : 4:2:0
Bit depth                                : 8 bits
Scan type                                : Progressive
Bits/(Pixel*Frame)                       : 0.290
Stream size                              : 4.41 GiB (77%)
Title                                    : www.club-hd.com
Language                                 : English
Default                                  : Yes
Forced                                   : No

Audio #1
ID                                       : 2
Format                                   : AC-3
Format/Info                              : Audio Coding 3
Mode extension                           : CM (complete main)
Format settings, Endianness              : Big
Codec ID                                 : A_AC3
Duration                                 : 1h 18mn
Bit rate mode                            : Constant
Bit rate                                 : 640 Kbps
Channel(s)                               : 6 channels
Channel positions                        : Front: L C R, Side: L R, LFE
Sampling rate                            : 48.0 KHz
Bit depth                                : 16 bits
Compression mode                         : Lossy
Stream size                              : 361 MiB (6%)
Title                                    : English AC3 5.1
Language                                 : English
Default                                  : Yes
Forced                                   : No

Audio #2
ID                                       : 3
Format                                   : DTS
Format/Info                              : Digital Theater Systems
Codec ID                                 : A_DTS
Duration                                 : 1h 18mn
Bit rate mode                            : Constant
Bit rate                                 : 1 510 Kbps
Channel(s)                               : 6 channels
Channel positions                        : Front: L C R, Side: L R, LFE
Sampling rate                            : 48.0 KHz
Bit depth                                : 16 bits
Compression mode                         : Lossy
Stream size                              : 852 MiB (15%)
Title                                    : English DTS 5.1
Language                                 : English
Default                                  : No
Forced                                   : No

Menu
00:00:00.000                             : en:Backstage 1
00:05:01.635                             : en:Evil Deeds
00:07:43.563                             : en:Mosh
00:11:02.729                             : en:Business
00:15:05.371                             : en:Rain Man
00:16:53.646                             : en:Ass Like That
00:19:17.890                             : en:Puke
00:21:05.531                             : en:Kill You
00:22:57.142                             : en: Like Toy Soldiers
00:26:21.447                             : en:Git Up (Feat. D12)
00:29:50.522                             : en:How Come (Feat. D12)
00:35:57.255                             : en:Rock Star (Feat. Bizarre of D12)
00:37:01.019                             : en:40 Oz (Feat. D12)
00:41:16.274                             : en:My Band (Feat. D12)
00:45:37.401                             : en:Backstage 2
00:46:37.328                             : en:Stan
00:48:40.317                             : en:The Way I Am
00:51:03.661                             : en:Just Don't Give A Fuck
00:52:33.884                             : en:Got Some Teeth (Feat. Obbie Trice)
00:54:50.187                             : en:Stay 'Bout It (Aqua) (Feat. Stat Quo)
00:57:35.352                             : en:The Set Up (Feat. Stat Quo)
01:00:25.355                             : en:Like Dat (Feat. Stat Quo & Obie Trice)
01:02:25.375                             : en:Cleaning Out My Closet
01:04:01.237                             : en:Mockingbird
01:06:23.012                             : en:Just Lose It
01:10:14.577                             : en:Backstage 3
01:12:10.293                             : en:Lose Yourself (Feat. D12)




CONTRASE%C3%91A-FINAL.png


Código:
www.club-hd.com




Descarga.png



MEGA-BANNER.png

Tenemos TODO el material de Club-HD disponible por Mega, enlaces 100% activos y online hasta la fecha

Llévate tus cuentas Mega PRO III gratis con tu membresía VIP!
Todos los posts vivos con links de Mega.
Todo el material de Club-HD desbloqueado y sin publicidad.

Obtén más información sobre nuestras Membresías VIP



UPLOADED_BANNER.png

Para ver este contenido oculto, debes dar click en el botón"Like", o cualquiera de las otras reacciones:

Me Gusta Me Gusta, Me Encanta Me Encanta, Jaja Jaja, Wow Wow, Triste Triste, Molesto Molesto
 
Última edición por un moderador:
Desc_g_ ...

R21, se que aquí no son los pedidos :slbd: ... S_T1

Pero no tendran o podran subir otro concierto, "Metallica, Slayer, Megadeth, Anthrax: The Big 4 - Live from Sofia, Bulgaria" 4stuto
http://www.blu-ray.com/movies/Metallica-Slayer-Megadeth-Anthrax-The-Big-4-Live-from-Sofia-Bulgaria-Blu-ray/16600/

Ya lo tengo en 2 DVD-9 copia de original l0l pero no hay como tenerlo en calidad Club-HD

Saludos :D


Voy a traerles todo lo que pueda y lo que tenga :dplgar:
 
bueno este si que me gusto primer consierto que descargo aqui gracias, soy un fiel fan de Eminemmusic2
 
Volver