Emperor (2012) 720p BDRip Audio Inglés [Subt. Esp] (Drama)

Maestro Revolver

Well-known member
Miembro del Staff
Administrador
Registro
9 Ago 2012
Mensajes
3.567








TÍTULO ORIGINAL: Emperor
AÑO: 2012
DURACIÓN: 98 min.
PAÍS: USA
DIRECTOR: Peter Webber
GUIÓN: David Klass, Vera Blasi
REPARTO: Tommy Lee Jones, Matthew Fox, Kaori Momoi, Eriko Hatsune, Aaron Jackson, Toshiyuki Nishida, Takatarô Kataoka, Masatô Ibu, William Wallace, Nic Sampson, Isao Natsuyagi, Gareth Ruck, Masatoshi Nakamura, Shôhei Hino
PRODUCTORA: Krasnoff Foster Productions / Fellers Film
GÉNERO: Drama | Histórico
: http://www.imdb.com/title/tt2103264/


Premios: 2012: Festival de Toronto: Nominada al Premio del Público (Mejor película)






Una vez terminada la Segunda Guerra Mundial (1939-1945), el prestigioso general Douglas MacArthur (Tommy Lee Jones) y un colega suyo (Matthew Fox) tendrán que decidir el destino del emperador japonés Hirohito.
























La pelicula NO tiene ninguna marca... solo colocamos el nombre de esta web en las capturas






Código:
General
Format                                   : Matroska
Format version                           : Version 2
File size                                : 3.58 GiB
Duration                                 : 1h 45mn
Overall bit rate                         : 4 860 Kbps
Movie name                               : www.club-hd.com
Encoded date                             : UTC 2013-08-01 23:30:23
Writing application                      : mkvmerge v5.7.0 ('The Whirlwind') built on Jul  8 2012 20:08:51
Writing library                          : libebml v1.2.3 + libmatroska v1.3.0

Video
ID                                       : 1
Format                                   : AVC
Format/Info                              : Advanced Video Codec
Format profile                           : High@L4.1
Format settings, CABAC                   : Yes
Format settings, ReFrames                : 5 frames
Codec ID                                 : V_MPEG4/ISO/AVC
Duration                                 : 1h 45mn
Bit rate                                 : 4 415 Kbps
Width                                    : 1 280 pixels
Height                                   : 544 pixels
Display aspect ratio                     : 2.35:1
Frame rate mode                          : Constant
Frame rate                               : 23.976 fps
Color space                              : YUV
Chroma subsampling                       : 4:2:0
Bit depth                                : 8 bits
Scan type                                : Progressive
Bits/(Pixel*Frame)                       : 0.264
Stream size                              : 3.18 GiB (89%)
Title                                    : www.club-hd.com
Writing library                          : x264 core 135 r2345 f0c1c53
Language                                 : English
Default                                  : Yes
Forced                                   : No

Audio
ID                                       : 2
Format                                   : AC-3
Format/Info                              : Audio Coding 3
Mode extension                           : CM (complete main)
Format settings, Endianness              : Big
Codec ID                                 : A_AC3
Duration                                 : 1h 45mn
Bit rate mode                            : Constant
Bit rate                                 : 448 Kbps
Channel(s)                               : 6 channels
Channel positions                        : Front: L C R, Side: L R, LFE
Sampling rate                            : 48.0 KHz
Bit depth                                : 16 bits
Compression mode                         : Lossy
Stream size                              : 338 MiB (9%)
Title                                    : www.club-hd.com
Language                                 : English
Default                                  : Yes
Forced                                   : No

Text
ID                                       : 3
Format                                   : UTF-8
Codec ID                                 : S_TEXT/UTF8
Codec ID/Info                            : UTF-8 Plain Text
Title                                    : www.club-hd.com
Language                                 : Spanish
Default                                  : Yes
Forced                                   : No

Menu
00:00:00.000                             : en:00:00:00.000
00:07:00.170                             : en:00:07:00.170
00:14:25.782                             : en:00:14:25.782
00:20:41.699                             : en:00:20:41.699
00:29:13.293                             : en:00:29:13.293
00:36:26.559                             : en:00:36:26.559
00:41:58.766                             : en:00:41:58.766
00:48:26.570                             : en:00:48:26.570
00:56:14.705                             : en:00:56:14.705
01:02:03.678                             : en:01:02:03.678
01:07:56.155                             : en:01:07:56.155
01:17:27.560                             : en:01:17:27.560
01:23:43.894                             : en:01:23:43.894
01:31:06.127                             : en:01:31:06.127
01:37:08.823                             : en:01:37:08.823
01:41:01.055                             : en:01:41:01.055








Enlaces de Mega y Google Drive solo disponibles para Miembros VIP

Compra tu Membresía VIP y apoya a Club-HD!

ATENCIÓN! Tenemos TODO el material de Club-HD disponible por Mega y Google Drive, enlaces 100% activos y online hasta la fecha

Llévate tus cuentas Mega PRO III gratis con tu membresía VIP!
Todos los posts vivos con links de Mega y Google Drive.
Todo el material de Club-HD desbloqueado y sin publicidad.

Click Aquí para más información.


Para ver este contenido oculto, debes dar click en una de las siguientes reacciones : Like Like, Love Love, Haha Haha, Wow Wow, Sad Sad, Angry Angry



 
Última edición por un moderador:

Usuarios Que Están Viendo Este Tema (Total: 1, Miembros: 0, Invitados: 1)

Quién Leyó Este Tema (Total Miembros: 3)

Arriba