Empire State (2013) 720p BDRip Audio Inglés [Subt. Esp] (Action)

Maestro Revolver

Well-known member
Miembro del Staff
Administrador
Registro
9 Ago 2012
Mensajes
3.567








TÍTULO ORIGINAL: Empire State
AÑO: 2013
PAÍS: USA
DIRECTOR: Dito Montiel
GUIÓN: Adam Mazer
REPARTO: Liam Hemsworth, Dwayne Johnson, Emma Roberts, Nikki Reed
PRODUCTORA: Grindstone Entertainment Group, Emmett / Furla Películas, Cheetah Vision
GÉNERO: Action / Drama
: http://www.imdb.com/title/tt2171867/






Después de no poder entrar en la academia de policía, Chris Potamitis ( Liam Hemsworth ), se conforma con un trabajo de guardia de seguridad con el EMPIRE STATE Armored Truck Company. Chris comete el error de mencionar la falta de seguridad de la empresa para su mejor amigo, Eddie ( Michael Angarano ), y está pronto inconscientemente introduce en un elaborado plan para robar a los abundantes cantidades de dinero en efectivo que se almacenan allí - que resulta en el mayor robo de dinero en efectivo en la historia de EE.UU. . Como las apuestas siguen subiendo, Chris y Eddie deben burlar a James Ransone ( Dwayne Johnson ), el veterano detective de NYPD que es caliente en su rastro, así como los jefes mafiosos locales que quieren saber quien sacó un empleo en su territorio, o sufrir las consecuencias.
























La pelicula NO tiene ninguna marca... solo colocamos el nombre de esta web en las capturas






Código:
General
Format                                   : Matroska
Format version                           : Version 2
File size                                : 3.65 GiB
Duration                                 : 1h 34mn
Overall bit rate                         : 5 531 Kbps
Movie name                               : www.club-hd.com
Encoded date                             : UTC 2013-08-22 01:17:21
Writing application                      : mkvmerge v5.7.0 ('The Whirlwind') built on Jul  8 2012 20:08:51
Writing library                          : libebml v1.2.3 + libmatroska v1.3.0

Video
ID                                       : 1
Format                                   : AVC
Format/Info                              : Advanced Video Codec
Format profile                           : High@L4.1
Format settings, CABAC                   : Yes
Format settings, ReFrames                : 5 frames
Codec ID                                 : V_MPEG4/ISO/AVC
Duration                                 : 1h 34mn
Bit rate                                 : 5 094 Kbps
Width                                    : 1 280 pixels
Height                                   : 534 pixels
Display aspect ratio                     : 2.40:1
Frame rate mode                          : Constant
Frame rate                               : 23.976 fps
Color space                              : YUV
Chroma subsampling                       : 4:2:0
Bit depth                                : 8 bits
Scan type                                : Progressive
Bits/(Pixel*Frame)                       : 0.311
Stream size                              : 3.28 GiB (90%)
Title                                    : www.club-hd.com
Writing library                          : x264 core 130 r2273 b3065e6
Language                                 : English
Default                                  : Yes
Forced                                   : No

Audio
ID                                       : 2
Format                                   : AC-3
Format/Info                              : Audio Coding 3
Mode extension                           : CM (complete main)
Format settings, Endianness              : Big
Codec ID                                 : A_AC3
Duration                                 : 1h 34mn
Bit rate mode                            : Constant
Bit rate                                 : 448 Kbps
Channel(s)                               : 6 channels
Channel positions                        : Front: L C R, Side: L R, LFE
Sampling rate                            : 48.0 KHz
Bit depth                                : 16 bits
Compression mode                         : Lossy
Stream size                              : 302 MiB (8%)
Title                                    : www.club-hd.com
Language                                 : English
Default                                  : Yes
Forced                                   : No

Text
ID                                       : 3
Format                                   : UTF-8
Codec ID                                 : S_TEXT/UTF8
Codec ID/Info                            : UTF-8 Plain Text
Language                                 : Spanish
Default                                  : Yes
Forced                                   : No

Menu
00:00:00.000                             : en:00:00:00.000
00:06:06.157                             : en:00:06:06.157
00:13:03.032                             : en:00:13:03.032
00:19:22.995                             : en:00:19:22.995
00:22:39.775                             : en:00:22:39.775
00:27:36.071                             : en:00:27:36.071
00:33:38.767                             : en:00:33:38.767
00:39:55.018                             : en:00:39:55.018
00:46:00.383                             : en:00:46:00.383
00:52:26.143                             : en:00:52:26.143
00:59:47.375                             : en:00:59:47.375
01:06:38.703                             : en:01:06:38.703
01:12:29.887                             : en:01:12:29.887
01:20:12.808                             : en:01:20:12.808
01:25:26.747                             : en:01:25:26.747
01:29:23.900                             : en:01:29:23.900








Enlaces de Mega y Google Drive solo disponibles para Miembros VIP

Compra tu Membresía VIP y apoya a Club-HD!

ATENCIÓN! Tenemos TODO el material de Club-HD disponible por Mega y Google Drive, enlaces 100% activos y online hasta la fecha

Llévate tus cuentas Mega PRO III gratis con tu membresía VIP!
Todos los posts vivos con links de Mega y Google Drive.
Todo el material de Club-HD desbloqueado y sin publicidad.

Click Aquí para más información.


Para ver este contenido oculto, debes dar click en una de las siguientes reacciones : Like Like, Love Love, Haha Haha, Wow Wow, Sad Sad, Angry Angry



 
Última edición por un moderador:

Usuarios Que Están Viendo Este Tema (Total: 1, Miembros: 0, Invitados: 1)

Quién Leyó Este Tema (Total Miembros: 3)

Arriba