Ender's Game (2013) 1080p BDRip Dual Latino-Inglés [Subt. Esp] (Ciencia ficción. Bélico. Acción)

Maestro Revolver

Administrador
Registro
9 Ago 2012
Mensajes
3.157
Reacciones (ptje)
54.925


Enders-Game-1080p.jpg




FichaTecnica.jpg


TÍTULO ORIGINAL: Ender's Game
AÑO: 2013
DURACIÓN: 114 min.
PAÍS: USA
DIRECTOR: Gavin Hood
GUIÓN: Gavin Hood (Novela: Orson Scott Card)
REPARTO: Asa Butterfield, Harrison Ford, Hailee Steinfeld, Ben Kingsley, Viola Davis, Suraj Partha, Abigail Breslin, Moises Arias, Jimmy 'Jax' Pinchak, Aramis Knight, Brendan Meyer, Conor Carroll, Khylin Rhambo, Brandon Soo Hoo, Nonso Anozie
PRODUCTORA: Summit Entertainment / Chartoff Productions / Kurtzman Orci Paper Products / Odd Lot Entertainment
GÉNERO: Ciencia ficción. Bélico. Acción | Extraterrestres. Ejército
imdb-logo.png
: http://www.imdb.com/title/tt1731141/




Sinopsis.jpg


Setenta años después de una guerra entre seres humanos y extraterrestres, un niño es enviado a una escuela militar espacial con el fin de prepararlo para una futura invasión. Adaptación de la popular novela de ciencia-ficción de Orson Scott Card.




Trailer.jpg






Capturas.jpg


1.jpg


2.jpg


3.jpg


4.jpg


5.jpg


6.jpg


La pelicula NO tiene ninguna marca... solo colocamos el nombre de esta web en las capturas




MediaInfo.jpg


Código:
General
Format                                   : Matroska
Format version                           : Version 2
File size                                : 9.60 GiB
Duration                                 : 1h 53mn
Overall bit rate                         : 12.1 Mbps
Movie name                               : www.club-hd.com
Encoded date                             : UTC 2014-02-01 02:59:21
Writing application                      : mkvmerge v5.7.0 ('The Whirlwind') built on Jul  8 2012 20:08:51
Writing library                          : libebml v1.2.3 + libmatroska v1.3.0

Video
ID                                       : 1
Format                                   : AVC
Format/Info                              : Advanced Video Codec
Format profile                           : [email protected]
Format settings, CABAC                   : Yes
Format settings, ReFrames                : 5 frames
Muxing mode                              : Header stripping
Codec ID                                 : V_MPEG4/ISO/AVC
Duration                                 : 1h 53mn
Bit rate                                 : 9 487 Kbps
Width                                    : 1 920 pixels
Height                                   : 800 pixels
Display aspect ratio                     : 2.40:1
Frame rate mode                          : Constant
Frame rate                               : 23.976 fps
Color space                              : YUV
Chroma subsampling                       : 4:2:0
Bit depth                                : 8 bits
Scan type                                : Progressive
Bits/(Pixel*Frame)                       : 0.258
Stream size                              : 7.35 GiB (77%)
Title                                    : www.club-hd.com
Writing library                          : x264 core 140 r2377 1ca7bb9
Language                                 : English
Default                                  : Yes
Forced                                   : No

Audio #1
ID                                       : 2
Format                                   : AC-3
Format/Info                              : Audio Coding 3
Mode extension                           : CM (complete main)
Format settings, Endianness              : Big
Muxing mode                              : Header stripping
Codec ID                                 : A_AC3
Duration                                 : 1h 53mn
Bit rate mode                            : Constant
Bit rate                                 : 448 Kbps
Channel(s)                               : 6 channels
Channel positions                        : Front: L C R, Side: L R, LFE
Sampling rate                            : 48.0 KHz
Bit depth                                : 16 bits
Compression mode                         : Lossy
Delay relative to video                  : 1s 300ms
Stream size                              : 365 MiB (4%)
Title                                    : www.club-hd.com  >>  Latino AC3 5.1
Language                                 : Spanish
Default                                  : Yes
Forced                                   : No

Audio #2
ID                                       : 3
Format                                   : AC-3
Format/Info                              : Audio Coding 3
Mode extension                           : CM (complete main)
Format settings, Endianness              : Big
Muxing mode                              : Header stripping
Codec ID                                 : A_AC3
Duration                                 : 1h 53mn
Bit rate mode                            : Constant
Bit rate                                 : 640 Kbps
Channel(s)                               : 6 channels
Channel positions                        : Front: L C R, Side: L R, LFE
Sampling rate                            : 48.0 KHz
Bit depth                                : 16 bits
Compression mode                         : Lossy
Stream size                              : 521 MiB (5%)
Title                                    : AC3
Language                                 : English
Default                                  : No
Forced                                   : No

Audio #3
ID                                       : 4
Format                                   : DTS
Format/Info                              : Digital Theater Systems
Mode                                     : 16
Format settings, Endianness              : Big
Muxing mode                              : Header stripping
Codec ID                                 : A_DTS
Duration                                 : 1h 53mn
Bit rate mode                            : Constant
Bit rate                                 : 1 509 Kbps
Channel(s)                               : 6 channels
Channel positions                        : Front: L C R, Side: L R, LFE
Sampling rate                            : 48.0 KHz
Bit depth                                : 24 bits
Compression mode                         : Lossy
Stream size                              : 1.20 GiB (12%)
Title                                    : DTS
Language                                 : English
Default                                  : No
Forced                                   : No

Text #1
ID                                       : 5
Format                                   : UTF-8
Codec ID                                 : S_TEXT/UTF8
Codec ID/Info                            : UTF-8 Plain Text
Title                                    : Forzados
Language                                 : Spanish
Default                                  : Yes
Forced                                   : No

Text #2
ID                                       : 6
Format                                   : UTF-8
Codec ID                                 : S_TEXT/UTF8
Codec ID/Info                            : UTF-8 Plain Text
Title                                    : Completos
Language                                 : Spanish
Default                                  : No
Forced                                   : No

Menu
00:00:00.000                             : en:00:00:00.000
00:06:10.579                             : en:00:06:10.579
00:14:18.566                             : en:00:14:18.566
00:19:06.145                             : en:00:19:06.145
00:28:07.144                             : en:00:28:07.144
00:33:22.667                             : en:00:33:22.667
00:39:34.664                             : en:00:39:34.664
00:45:43.407                             : en:00:45:43.407
00:53:37.714                             : en:00:53:37.714
01:02:15.607                             : en:01:02:15.607
01:09:21.949                             : en:01:09:21.949
01:15:16.887                             : en:01:15:16.887
01:23:38.305                             : en:01:23:38.305
01:30:54.824                             : en:01:30:54.824
01:35:43.279                             : en:01:35:43.279
01:41:12.858                             : en:01:41:12.858




Descarga.jpg



MEGA.jpg

Tenemos TODO el material de Club-HD disponible por Mega, enlaces 100% activos y online hasta la fecha

Llévate tus cuentas Mega PRO III gratis con tu membresía VIP!
Todos los posts vivos con links de Mega.
Todo el material de Club-HD desbloqueado y sin publicidad.

Obtén más información sobre nuestras Membresías VIP



UPLOADED_BANNER.png

Para ver este contenido oculto, debes dar click en el botón"Like", o cualquiera de las otras reacciones:

Me Gusta Me Gusta, Me Encanta Me Encanta, Jaja Jaja, Wow Wow, Triste Triste, Molesto Molesto

google-drive.png


Para ver este contenido oculto, debes dar click en el botón"Like", o cualquiera de las otras reacciones:

Me Gusta Me Gusta, Me Encanta Me Encanta, Jaja Jaja, Wow Wow, Triste Triste, Molesto Molesto
 
Última edición por un moderador:
Volver