Enough Said (2013) 720p BDRip Dual Latino-Inglés [Subt. Esp] (Romance. Comedia)

Maestro Revolver

Administrador
Registro
9 Ago 2012
Mensajes
3.157
Reacciones (ptje)
54.925


Enough-Said.jpg




FichaTecnica.jpg


TÍTULO ORIGINAL: Enough Said
AÑO: 2013
DURACIÓN: 92 min.
PAÍS: USA
DIRECTOR: Nicole Holofcener
GUIÓN: Nicole Holofcener
REPARTO: Julia Louis-Dreyfus, James Gandolfini, Toni Collette, Catherine Keener, Ben Falcone, Tavi Gevinson, Tracey Fairaway, Eve Hewson, Anjelah Johnson-Reyes, Toby Huss
PRODUCTORA: Fox Searchlight Pictures / Likely Story
GÉNERO: Romance. Comedia | Comedia romántica
imdb-logo.png
: http://www.imdb.com/title/tt2390361/

Premios: 2013: Globos de Oro: Nominada a mejor actriz (Louis-Dreyfus)
2013: Festival de Gijón: Sección oficial largometrajes a competición
2013: Independent Spirit Awards: 2 Nominaciones: Mejor guión, actor sec. (Gandolfini)
2013: Satellite Awards: 2 nominaciones, incluyendo mejor actriz (Louis-Dreyfus)





Sinopsis.jpg


Eva (Julia Louis-Dreyfus), una madre divorciada que trabaja como masajista, ve con temor la inminente partida de su hija a la universidad. Al mismo tiempo que tiene un idilio con Albert (James Gandolfini), un hombre dulce y divertido que también padece el síndrome del "nido vacío", hace amistad con Marianne (Catherine Keener), una clienta que es poetisa. Cuando Eva conoce la verdad sobre el ex marido de Marianne, empieza a albergar dudas sobre su relación con Albert.





Trailer.jpg






Capturas.jpg


1.jpg


2.jpg


3.jpg


4.jpg


5.jpg


6.jpg


La pelicula NO tiene ninguna marca... solo colocamos el nombre de esta web en las capturas




MediaInfo.jpg


Código:
General
Format                                   : Matroska
Format version                           : Version 2
File size                                : 3.97 GiB
Duration                                 : 1h 32mn
Overall bit rate                         : 6 110 Kbps
Movie name                               : www.club-hd.com
Encoded date                             : UTC 2014-01-07 15:29:07
Writing application                      : mkvmerge v5.7.0 ('The Whirlwind') built on Jul  8 2012 20:08:51
Writing library                          : libebml v1.2.3 + libmatroska v1.3.0

Video
ID                                       : 1
Format                                   : AVC
Format/Info                              : Advanced Video Codec
Format profile                           : [email protected]
Format settings, CABAC                   : Yes
Format settings, ReFrames                : 5 frames
Muxing mode                              : Header stripping
Codec ID                                 : V_MPEG4/ISO/AVC
Duration                                 : 1h 32mn
Bit rate                                 : 5 215 Kbps
Width                                    : 1 280 pixels
Height                                   : 696 pixels
Display aspect ratio                     : 1.85:1
Frame rate mode                          : Constant
Frame rate                               : 23.976 fps
Color space                              : YUV
Chroma subsampling                       : 4:2:0
Bit depth                                : 8 bits
Scan type                                : Progressive
Bits/(Pixel*Frame)                       : 0.244
Stream size                              : 3.31 GiB (83%)
Title                                    : www.club-hd.com
Writing library                          : x264 core 140 r2377 1ca7bb9
Language                                 : English
Default                                  : Yes
Forced                                   : No

Audio #1
ID                                       : 2
Format                                   : AC-3
Format/Info                              : Audio Coding 3
Mode extension                           : CM (complete main)
Format settings, Endianness              : Big
Muxing mode                              : Header stripping
Codec ID                                 : A_AC3
Duration                                 : 1h 32mn
Bit rate mode                            : Constant
Bit rate                                 : 448 Kbps
Channel(s)                               : 6 channels
Channel positions                        : Front: L C R, Side: L R, LFE
Sampling rate                            : 48.0 KHz
Bit depth                                : 16 bits
Compression mode                         : Lossy
Stream size                              : 298 MiB (7%)
Title                                    : www.club-hd.com  >>  Latino
Language                                 : Spanish
Default                                  : Yes
Forced                                   : No

Audio #2
ID                                       : 3
Format                                   : AC-3
Format/Info                              : Audio Coding 3
Mode extension                           : CM (complete main)
Format settings, Endianness              : Big
Muxing mode                              : Header stripping
Codec ID                                 : A_AC3
Duration                                 : 1h 32mn
Bit rate mode                            : Constant
Bit rate                                 : 448 Kbps
Channel(s)                               : 6 channels
Channel positions                        : Front: L C R, Side: L R, LFE
Sampling rate                            : 48.0 KHz
Bit depth                                : 16 bits
Compression mode                         : Lossy
Stream size                              : 298 MiB (7%)
Title                                    : www.club-hd.com  >>  Inglés
Language                                 : English
Default                                  : No
Forced                                   : No

Text
ID                                       : 4
Format                                   : UTF-8
Codec ID                                 : S_TEXT/UTF8
Codec ID/Info                            : UTF-8 Plain Text
Language                                 : Spanish
Default                                  : No
Forced                                   : No

Menu
00:00:00.000                             : en:00:00:00.000
00:02:45.999                             : en:00:02:45.999
00:07:17.145                             : en:00:07:17.145
00:11:07.458                             : en:00:11:07.458
00:16:07.133                             : en:00:16:07.133
00:18:04.208                             : en:00:18:04.208
00:20:06.664                             : en:00:20:06.664
00:26:21.413                             : en:00:26:21.413
00:28:43.472                             : en:00:28:43.472
00:30:44.468                             : en:00:30:44.468
00:32:58.435                             : en:00:32:58.435
00:35:34.174                             : en:00:35:34.174
00:41:21.479                             : en:00:41:21.479
00:44:06.477                             : en:00:44:06.477
00:47:11.287                             : en:00:47:11.287
00:49:23.002                             : en:00:49:23.002
00:54:15.836                             : en:00:54:15.836
00:57:41.375                             : en:00:57:41.375
00:59:11.840                             : en:00:59:11.840
01:02:03.970                             : en:01:02:03.970
01:08:48.499                             : en:01:08:48.499
01:11:40.213                             : en:01:11:40.213
01:14:36.138                             : en:01:14:36.138
01:16:12.443                             : en:01:16:12.443
01:20:19.940                             : en:01:20:19.940
01:23:41.016                             : en:01:23:41.016
01:26:50.914                             : en:01:26:50.914
01:30:26.212                             : en:01:30:26.212




Descarga.jpg



MEGA.jpg

Tenemos TODO el material de Club-HD disponible por Mega, enlaces 100% activos y online hasta la fecha

Llévate tus cuentas Mega PRO III gratis con tu membresía VIP!
Todos los posts vivos con links de Mega.
Todo el material de Club-HD desbloqueado y sin publicidad.

Obtén más información sobre nuestras Membresías VIP



UPLOADED_BANNER.png

Para ver este contenido oculto, debes dar click en el botón"Like", o cualquiera de las otras reacciones:

Me Gusta Me Gusta, Me Encanta Me Encanta, Jaja Jaja, Wow Wow, Triste Triste, Molesto Molesto

 
Última edición por un moderador:
Comedia romantica para ver un dia tranquilo gracias por el aporte
 
Volver