• Buenos dias amigos del club. Les queremos avisar que ya recuperamos el acceso a las webs de las Membresías VIP y del Paste. Asi que ya pueden comprar sus membresías y descargar todos los estrenos nuevamente.

Escape from Alcatraz (1979) m-720p Dual Latino-Inglés [Subt. Esp-Ing] (Drama. Acción)

Maestro Revolver

Administrador
Registro
9 Ago 2012
Mensajes
3.157
Reacciones (ptje)
55.322


Escape-from-Alcatraz.jpg




FichaTecnica.jpg


TÍTULO ORIGINAL: Escape from Alcatraz
AÑO: 1979
DURACIÓN: 112 min.
PAÍS: USA
DIRECTOR: Don Siegel
GUIÓN: Richard Tuggle (Novela: J. Campbell Bruce)
REPARTO: Clint Eastwood, Patrick McGoohan, Roberts Blossom, Jack Thibeau, Fred Ward, Larry Hankin
PRODUCTORA: Universal / Malpaso
GÉNERO: Drama. Acción | Drama carcelario. Años 60. Basado en hechos reales
imdb-logo.png
: http://www.imdb.es/title/tt0079116/




Sinopsis.jpg


San Francisco, 18 de enero de 1960. Frank Lee Morris (Eastwood), un preso muy inteligente especializado en fugas, es trasladado a Alcatraz, cárcel de máxima seguridad situada en una isla rocosa en medio de la Bahía de San Francisco. A pesar de que nadie ha conseguido nunca evadirse de allí, Frank y otros reclusos empiezan a preparar minuciosamente un plan de fuga.




Trailer.jpg






Capturas.jpg


1.jpg


2.jpg


3.jpg


4.jpg


5.jpg


6.jpg


La pelicula NO tiene ninguna marca... solo colocamos el nombre de esta web en las capturas




MediaInfo.jpg


Código:
General
Format                                   : Matroska
Format version                           : Version 2
File size                                : 2.88 GiB
Duration                                 : 1h 51mn
Overall bit rate                         : 3 683 Kbps
Movie name                               : www.club-hd.com
Encoded date                             : UTC 2013-02-10 19:51:08
Writing application                      : mkvmerge v5.7.0 ('The Whirlwind') built on Jul  8 2012 20:08:51
Writing library                          : libebml v1.2.3 + libmatroska v1.3.0

Video
ID                                       : 1
Format                                   : AVC
Format/Info                              : Advanced Video Codec
Format profile                           : [email protected]
Format settings, CABAC                   : Yes
Format settings, ReFrames                : 9 frames
Codec ID                                 : V_MPEG4/ISO/AVC
Duration                                 : 1h 51mn
Bit rate                                 : 2 817 Kbps
Width                                    : 1 280 pixels
Height                                   : 720 pixels
Display aspect ratio                     : 16:9
Frame rate mode                          : Constant
Frame rate                               : 23.976 fps
Color space                              : YUV
Chroma subsampling                       : 4:2:0
Bit depth                                : 8 bits
Scan type                                : Progressive
Bits/(Pixel*Frame)                       : 0.127
Stream size                              : 2.15 GiB (75%)
Title                                    : www.club-hd.com
Writing library                          : x264 core 129 r2245 bc13772
Language                                 : English
Default                                  : Yes
Forced                                   : No

Audio #1
ID                                       : 2
Format                                   : AC-3
Format/Info                              : Audio Coding 3
Mode extension                           : CM (complete main)
Format settings, Endianness              : Big
Codec ID                                 : A_AC3
Duration                                 : 1h 51mn
Bit rate mode                            : Constant
Bit rate                                 : 224 Kbps
Channel(s)                               : 2 channels
Channel positions                        : Front: L R
Sampling rate                            : 48.0 KHz
Bit depth                                : 16 bits
Compression mode                         : Lossy
Stream size                              : 179 MiB (6%)
Title                                    : www.club-hd.com  >>  Latino
Language                                 : Spanish
Default                                  : Yes
Forced                                   : No

Audio #2
ID                                       : 3
Format                                   : AC-3
Format/Info                              : Audio Coding 3
Mode extension                           : CM (complete main)
Format settings, Endianness              : Big
Codec ID                                 : A_AC3
Duration                                 : 1h 51mn
Bit rate mode                            : Constant
Bit rate                                 : 640 Kbps
Channel(s)                               : 6 channels
Channel positions                        : Front: L C R, Side: L R, LFE
Sampling rate                            : 48.0 KHz
Bit depth                                : 16 bits
Compression mode                         : Lossy
Stream size                              : 512 MiB (17%)
Title                                    : www.club-hd.com  >>  Inglés
Language                                 : English
Default                                  : No
Forced                                   : No

Text #1
ID                                       : 4
Format                                   : UTF-8
Codec ID                                 : S_TEXT/UTF8
Codec ID/Info                            : UTF-8 Plain Text
Language                                 : Spanish
Default                                  : No
Forced                                   : No

Text #2
ID                                       : 5
Format                                   : UTF-8
Codec ID                                 : S_TEXT/UTF8
Codec ID/Info                            : UTF-8 Plain Text
Language                                 : English
Default                                  : No
Forced                                   : No

Menu
00:00:00.000                             : en:Chapter 1
00:08:16.871                             : en:Chapter 2
00:12:34.545                             : en:Chapter 3
00:17:16.202                             : en:Chapter 4
00:19:09.398                             : en:Chapter 5
00:23:41.337                             : en:Chapter 6
00:27:56.592                             : en:Chapter 7
00:35:26.207                             : en:Chapter 8
00:37:32.125                             : en:Chapter 9
00:47:51.702                             : en:Chapter 10
01:00:10.816                             : en:Chapter 11
01:11:42.965                             : en:Chapter 12
01:16:55.945                             : en:Chapter 13
01:25:25.704                             : en:Chapter 14
01:30:44.022                             : en:Chapter 15
01:33:06.080                             : en:Chapter 16
01:45:47.675                             : en:Chapter 17




Descarga.jpg




google-drive-vip.png


Tenemos TODO el material de Club-HD disponible por Mega, enlaces 100% activos y online hasta la fecha

Llévate tus cuentas Mega PRO III gratis con tu membresía VIP!
Todos los posts vivos con links de Mega.
Todo el material de Club-HD desbloqueado y sin publicidad.

Obtén más información sobre nuestras Membresías VIP




MEGA.jpg

Tenemos TODO el material de Club-HD disponible por Mega, enlaces 100% activos y online hasta la fecha

Llévate tus cuentas Mega PRO III gratis con tu membresía VIP!
Todos los posts vivos con links de Mega.
Todo el material de Club-HD desbloqueado y sin publicidad.

Obtén más información sobre nuestras Membresías VIP



UPLOADED_BANNER.png

Para ver este contenido oculto, debes dar click en el botón"Like", o cualquiera de las otras reacciones:

Me Gusta Me Gusta, Me Encanta Me Encanta, Jaja Jaja, Wow Wow, Triste Triste, Molesto Molesto

 
Última edición por un moderador:
Naaaa se puede creer pero que terrible clásico. Impresionante!!!

Se recontra agradece Revolver!

Buenísimo capo! victory
 
Grande master Revolver! ...un Clasico con el viejo Clint Eastwood, muchas gracias! :aplausos:
 
Volver