Escape from Planet Earth (2013) 3D H-SBS 1080p BDRip Dual Latino-Inglés [Subt. Esp] (Animación)

Maestro Revolver

Well-known member
Miembro del Staff
Administrador
Registro
9 Ago 2012
Mensajes
3.567








TÍTULO ORIGINAL: Escape from Planet Earth
AÑO: 2013
DURACIÓN: 89 min.
PAÍS: USA
DIRECTOR: Callan Brunker
GUIÓN: Bob Barlen, Callan Brunker, Cory Edwards, Tony Leech
REPARTO: Animation
PRODUCTORA: Blue Yonder Films
GÉNERO: Animación. Comedia. Ciencia ficción. Infantil | Extraterrestres. 3-D
: http://www.imdb.com/title/tt0765446/






La cinta, ambientada en el planeta Baab, cuenta la historia del admirado astronauta Scorch Supernova (Fraser), un héroe nacional del pueblo baabariano. Maestro en rescates audaces, Scorch realiza hazañas asombrosas con la ayuda de su hermano Gary (Corddry), jefe de control de misión en la BASA. Cuando Lena (Alba), jefe de la BASA, informa a los hermanos de un SOS en un planeta conocido por su peligrosidad Scorch rechaza las advertencias de Gary y caerá de lleno en una trampa diabólica a manos del maléfico Shanker (Gandolfini). Ahora Gary tendrá que convertirse en el héroe para rescatar a su hermano, a su planeta, a su amada esposa Kira (Parker) y a su hijo Kip.
























La pelicula NO tiene ninguna marca... solo colocamos el nombre de esta web en las capturas






Código:
General
Format                                   : Matroska
Format version                           : Version 2
File size                                : 8.08 GiB
Duration                                 : 1h 29mn
Overall bit rate                         : 13.0 Mbps
Movie name                               : www.club-hd.com
Encoded date                             : UTC 2013-06-10 15:25:26
Writing application                      : mkvmerge v5.7.0 ('The Whirlwind') built on Jul  8 2012 20:08:51
Writing library                          : libebml v1.2.3 + libmatroska v1.3.0

Video
ID                                       : 1
Format                                   : AVC
Format/Info                              : Advanced Video Codec
Format profile                           : High@L4.1
Format settings, CABAC                   : Yes
Format settings, ReFrames                : 2 frames
Codec ID                                 : V_MPEG4/ISO/AVC
Duration                                 : 1h 29mn
Bit rate                                 : 10.4 Mbps
Width                                    : 1 920 pixels
Height                                   : 1 080 pixels
Display aspect ratio                     : 16:9
Frame rate mode                          : Constant
Frame rate                               : 23.976 fps
Color space                              : YUV
Chroma subsampling                       : 4:2:0
Bit depth                                : 8 bits
Scan type                                : Progressive
Bits/(Pixel*Frame)                       : 0.209
Stream size                              : 6.46 GiB (80%)
Title                                    : www.club-hd.com
Writing library                          : x264 core
Language                                 : English
Default                                  : Yes
Forced                                   : No
Color primaries                          : BT.709
Transfer characteristics                 : BT.709
Matrix coefficients                      : BT.709

Audio #1
ID                                       : 2
Format                                   : AC-3
Format/Info                              : Audio Coding 3
Mode extension                           : CM (complete main)
Format settings, Endianness              : Big
Codec ID                                 : A_AC3
Duration                                 : 1h 29mn
Bit rate mode                            : Constant
Bit rate                                 : 384 Kbps
Channel(s)                               : 6 channels
Channel positions                        : Front: L C R, Side: L R, LFE
Sampling rate                            : 48.0 KHz
Bit depth                                : 16 bits
Compression mode                         : Lossy
Stream size                              : 245 MiB (3%)
Title                                    : www.club-hd.com  >>  Latino AC3 5.1
Language                                 : Spanish
Default                                  : Yes
Forced                                   : No

Audio #2
ID                                       : 3
Format                                   : AC-3
Format/Info                              : Audio Coding 3
Mode extension                           : CM (complete main)
Format settings, Endianness              : Big
Codec ID                                 : A_AC3
Duration                                 : 1h 29mn
Bit rate mode                            : Constant
Bit rate                                 : 448 Kbps
Channel(s)                               : 6 channels
Channel positions                        : Front: L C R, Side: L R, LFE
Sampling rate                            : 48.0 KHz
Bit depth                                : 16 bits
Compression mode                         : Lossy
Stream size                              : 286 MiB (3%)
Title                                    : www.club-hd.com  >>  Inglés AC3 5.1
Language                                 : English
Default                                  : No
Forced                                   : No

Audio #3
ID                                       : 4
Format                                   : DTS
Format/Info                              : Digital Theater Systems
Mode                                     : 16
Format settings, Endianness              : Big
Codec ID                                 : A_DTS
Duration                                 : 1h 29mn
Bit rate mode                            : Constant
Bit rate                                 : 1 509 Kbps
Channel(s)                               : 6 channels
Channel positions                        : Front: L C R, Side: L R, LFE
Sampling rate                            : 48.0 KHz
Bit depth                                : 24 bits
Compression mode                         : Lossy
Stream size                              : 962 MiB (12%)
Title                                    : www.club-hd.com  >>  Inglés DTS 5.1
Language                                 : English
Default                                  : No
Forced                                   : No

Text
ID                                       : 5
Format                                   : UTF-8
Codec ID                                 : S_TEXT/UTF8
Codec ID/Info                            : UTF-8 Plain Text
Language                                 : Spanish
Default                                  : No
Forced                                   : No

Menu
00:00:00.000                             : en:00:00:00.000
00:05:00.550                             : en:00:05:00.550
00:09:23.271                             : en:00:09:23.271
00:14:12.602                             : en:00:14:12.602
00:21:21.447                             : en:00:21:21.447
00:28:13.859                             : en:00:28:13.859
00:32:03.672                             : en:00:32:03.672
00:36:05.413                             : en:00:36:05.413
00:42:05.606                             : en:00:42:05.606
00:46:22.989                             : en:00:46:22.989
00:51:34.675                             : en:00:51:34.675
00:58:33.510                             : en:00:58:33.510
01:03:24.259                             : en:01:03:24.259
01:08:47.915                             : en:01:08:47.915
01:17:29.728                             : en:01:17:29.728
01:21:45.484                             : en:01:21:45.484








Enlaces de Mega y Google Drive solo disponibles para Miembros VIP

Compra tu Membresía VIP y apoya a Club-HD!

ATENCIÓN! Tenemos TODO el material de Club-HD disponible por Mega y Google Drive, enlaces 100% activos y online hasta la fecha

Llévate tus cuentas Mega PRO III gratis con tu membresía VIP!
Todos los posts vivos con links de Mega y Google Drive.
Todo el material de Club-HD desbloqueado y sin publicidad.

Click Aquí para más información.



Para ver este contenido oculto, debes dar click en una de las siguientes reacciones : Like Like, Love Love, Haha Haha, Wow Wow, Sad Sad, Angry Angry
 
Última edición por un moderador:

HemoAr

Dohko de Libra
Administrador
Uploader
Miembro VIP
Registro
9 Mar 2013
Mensajes
10.597
Ubicación
Rozan
shok:OHHH:
Gracias Revolver por la excelente calidad como siempre :aplausos:Tb_up3:LXR:
 

carlos610

Well-known member
Registro
28 Ago 2012
Mensajes
1.777
Edad
39
Ubicación
angol, araucania
gracias por publicar este gran animación en 3D tan esperada a poner a la lista de descarga y poder verla al fin en muy tremenda calidad gracias revolver22 por gran aporte que nos haces gracias saludos
 

Usuarios Que Están Viendo Este Tema (Total: 1, Miembros: 0, Invitados: 1)

Quién Leyó Este Tema (Total Miembros: 3)

Arriba