Escape from Planet Earth (2013) 720p BDRip Dual Latino-Inglés [Subt. Esp] (Animación)

Maestro Revolver

Administrador
Registro
9 Ago 2012
Mensajes
3.157
Reacciones (ptje)
54.925


EscapefromPlanetEarth.jpg




FichaTecnica.jpg


TÍTULO ORIGINAL: Escape from Planet Earth
AÑO: 2013
DURACIÓN: 89 min.
PAÍS: USA
DIRECTOR: Callan Brunker
GUIÓN: Bob Barlen, Callan Brunker, Cory Edwards, Tony Leech
REPARTO: Animation
PRODUCTORA: Blue Yonder Films
GÉNERO: Animación. Comedia. Ciencia ficción. Infantil | Extraterrestres. 3-D
imdb-logo.png
: http://www.imdb.com/title/tt0765446/




Sinopsis.jpg


La cinta, ambientada en el planeta Baab, cuenta la historia del admirado astronauta Scorch Supernova (Fraser), un héroe nacional del pueblo baabariano. Maestro en rescates audaces, Scorch realiza hazañas asombrosas con la ayuda de su hermano Gary (Corddry), jefe de control de misión en la BASA. Cuando Lena (Alba), jefe de la BASA, informa a los hermanos de un SOS en un planeta conocido por su peligrosidad Scorch rechaza las advertencias de Gary y caerá de lleno en una trampa diabólica a manos del maléfico Shanker (Gandolfini). Ahora Gary tendrá que convertirse en el héroe para rescatar a su hermano, a su planeta, a su amada esposa Kira (Parker) y a su hijo Kip.




Trailer.jpg






Capturas.jpg


1.jpg


2.jpg


3.jpg


4.jpg


5.jpg


6.jpg


La pelicula NO tiene ninguna marca... solo colocamos el nombre de esta web en las capturas




MediaInfo.jpg


Código:
General
Format                                   : Matroska
Format version                           : Version 2
File size                                : 2.73 GiB
Duration                                 : 1h 29mn
Overall bit rate                         : 4 377 Kbps
Movie name                               : www.club-hd.com
Encoded date                             : UTC 2013-06-10 04:45:29
Writing application                      : mkvmerge v5.7.0 ('The Whirlwind') built on Jul  8 2012 20:08:51
Writing library                          : libebml v1.2.3 + libmatroska v1.3.0

Video
ID                                       : 1
Format                                   : AVC
Format/Info                              : Advanced Video Codec
Format profile                           : [email protected]
Format settings, CABAC                   : Yes
Format settings, ReFrames                : 9 frames
Codec ID                                 : V_MPEG4/ISO/AVC
Duration                                 : 1h 29mn
Bit rate                                 : 3 458 Kbps
Width                                    : 1 280 pixels
Height                                   : 528 pixels
Display aspect ratio                     : 2.40:1
Frame rate mode                          : Constant
Frame rate                               : 23.976 fps
Color space                              : YUV
Chroma subsampling                       : 4:2:0
Bit depth                                : 8 bits
Scan type                                : Progressive
Bits/(Pixel*Frame)                       : 0.213
Stream size                              : 2.15 GiB (79%)
Title                                    : www.club-hd.com
Writing library                          : x264 core 68 r1195bm 5d75a9b
Language                                 : English
Default                                  : Yes
Forced                                   : No

Audio #1
ID                                       : 2
Format                                   : AC-3
Format/Info                              : Audio Coding 3
Mode extension                           : CM (complete main)
Format settings, Endianness              : Big
Codec ID                                 : A_AC3
Duration                                 : 1h 29mn
Bit rate mode                            : Constant
Bit rate                                 : 384 Kbps
Channel(s)                               : 6 channels
Channel positions                        : Front: L C R, Side: L R, LFE
Sampling rate                            : 48.0 KHz
Bit depth                                : 16 bits
Compression mode                         : Lossy
Stream size                              : 245 MiB (9%)
Title                                    : www.club-hd.com  >>  Latino
Language                                 : Spanish
Default                                  : Yes
Forced                                   : No

Audio #2
ID                                       : 3
Format                                   : AC-3
Format/Info                              : Audio Coding 3
Mode extension                           : CM (complete main)
Format settings, Endianness              : Big
Codec ID                                 : A_AC3
Duration                                 : 1h 29mn
Bit rate mode                            : Constant
Bit rate                                 : 448 Kbps
Channel(s)                               : 6 channels
Channel positions                        : Front: L C R, Side: L R, LFE
Sampling rate                            : 48.0 KHz
Bit depth                                : 16 bits
Compression mode                         : Lossy
Stream size                              : 286 MiB (10%)
Title                                    : www.club-hd.com  >>  Inglés
Language                                 : English
Default                                  : No
Forced                                   : No

Text
ID                                       : 4
Format                                   : UTF-8
Codec ID                                 : S_TEXT/UTF8
Codec ID/Info                            : UTF-8 Plain Text
Language                                 : Spanish
Default                                  : No
Forced                                   : No




Descarga.jpg



MEGA.jpg

Tenemos TODO el material de Club-HD disponible por Mega, enlaces 100% activos y online hasta la fecha

Llévate tus cuentas Mega PRO III gratis con tu membresía VIP!
Todos los posts vivos con links de Mega.
Todo el material de Club-HD desbloqueado y sin publicidad.

Obtén más información sobre nuestras Membresías VIP



UPLOADED_BANNER.png

Para ver este contenido oculto, debes dar click en el botón"Like", o cualquiera de las otras reacciones:

Me Gusta Me Gusta, Me Encanta Me Encanta, Jaja Jaja, Wow Wow, Triste Triste, Molesto Molesto

 
Última edición por un moderador:
NOoooooooooooo.
Otra vez entre los primeros................
Desc_g_
 
A descargar no la e visto aun veamos que tal esta la pelicula. Gracias Revo por la peli.
 
Volver