Escape From The Planet of The Apes (1971) 1080p BDRip Dual Latino-Inglés [Subt. Esp] (Ciencia ficción. Fantástico)

Maestro Revolver

Administrador
Registro
9 Ago 2012
Mensajes
3.157
Reacciones (ptje)
54.886


Escape-from-the-Planet-of-the-Apes-1080p.jpg




FichaTecnica.jpg


TÍTULO ORIGINAL: Escape From The Planet of The Apes
AÑO: 1971
DURACIÓN: 118 min.
PAÍS: USA
DIRECTOR: Don Taylor
GUIÓN: Paul Dehn
REPARTO: Roddy McDowall, Kim Hunter, Bradford Dillman, Ricardo Montalbán, Natalie Trundy, Sal Mineo, Albert Salmi, M. Emmet Walsh
PRODUCTORA: 20th Century Fox
GÉNERO: Ciencia ficción. Fantástico. Aventuras | Secuela. Simios. Futuro postapocalíptico
imdb-logo.png
: http://www.imdb.com/title/tt0067065/




Sinopsis.jpg


Tres simios, la doctora Zira, Cornelius y el doctor Milo, han conseguido sobrevivir al desastre nuclear que ha destruido su planeta y, tras reparar la nave de los seres humanos, viajan a través del tiempo hasta aterrizar en la Tierra a finales del siglo XX. Mientras son objeto de estudio en un centro de investigación para determinar su nivel de inteligencia, se niegan a revelar sus conocimientos sobre la civilización humana.




Trailer.jpg






Capturas.jpg


1.jpg


2.jpg


3.jpg


4.jpg


5.jpg


6.jpg


La pelicula NO tiene ninguna marca... solo colocamos el nombre de esta web en las capturas




MediaInfo.jpg


Código:
General
Format                                   : Matroska
Format version                           : Version 2
File size                                : 14.3 GiB
Duration                                 : 1h 37mn
Overall bit rate                         : 21.0 Mbps
Movie name                               : www.club-hd.com
Encoded date                             : UTC 2013-11-19 23:02:07
Writing application                      : mkvmerge v5.7.0 ('The Whirlwind') built on Jul  8 2012 20:08:51
Writing library                          : libebml v1.2.3 + libmatroska v1.3.0

Video
ID                                       : 1
Format                                   : AVC
Format/Info                              : Advanced Video Codec
Format profile                           : [email protected]
Format settings, CABAC                   : Yes
Format settings, ReFrames                : 5 frames
Codec ID                                 : V_MPEG4/ISO/AVC
Duration                                 : 1h 37mn
Bit rate                                 : 18.3 Mbps
Width                                    : 1 920 pixels
Height                                   : 812 pixels
Display aspect ratio                     : 2.35:1
Frame rate mode                          : Constant
Frame rate                               : 23.976 fps
Color space                              : YUV
Chroma subsampling                       : 4:2:0
Bit depth                                : 8 bits
Scan type                                : Progressive
Bits/(Pixel*Frame)                       : 0.489
Stream size                              : 12.5 GiB (87%)
Title                                    : www.club-hd.com
Writing library                          : x264 core 129 r2230kMod 1cffe9f
Language                                 : English
Default                                  : Yes
Forced                                   : No
Matrix coefficients                      : BT.709

Audio #1
ID                                       : 2
Format                                   : AC-3
Format/Info                              : Audio Coding 3
Mode extension                           : CM (complete main)
Format settings, Endianness              : Big
Codec ID                                 : A_AC3
Duration                                 : 1h 37mn
Bit rate mode                            : Constant
Bit rate                                 : 128 Kbps
Channel(s)                               : 2 channels
Channel positions                        : Front: L R
Sampling rate                            : 48.0 KHz
Bit depth                                : 16 bits
Compression mode                         : Lossy
Stream size                              : 89.3 MiB (1%)
Title                                    : www.club-hd.com  >>  Latino AC3 2.0
Language                                 : Spanish
Default                                  : Yes
Forced                                   : No

Audio #2
ID                                       : 3
Format                                   : AC-3
Format/Info                              : Audio Coding 3
Mode extension                           : CM (complete main)
Format settings, Endianness              : Big
Codec ID                                 : A_AC3
Duration                                 : 1h 37mn
Bit rate mode                            : Constant
Bit rate                                 : 640 Kbps
Channel(s)                               : 6 channels
Channel positions                        : Front: L C R, Side: L R, LFE
Sampling rate                            : 48.0 KHz
Bit depth                                : 16 bits
Compression mode                         : Lossy
Stream size                              : 447 MiB (3%)
Title                                    : www.club-hd.com  >>  Inglés AC3 5.1
Language                                 : English
Default                                  : No
Forced                                   : No

Audio #3
ID                                       : 4
Format                                   : DTS
Format/Info                              : Digital Theater Systems
Mode                                     : 16
Format settings, Endianness              : Big
Codec ID                                 : A_DTS
Duration                                 : 1h 37mn
Bit rate mode                            : Constant
Bit rate                                 : 1 509 Kbps
Channel(s)                               : 6 channels
Channel positions                        : Front: L C R, Side: L R, LFE
Sampling rate                            : 48.0 KHz
Bit depth                                : 24 bits
Compression mode                         : Lossy
Stream size                              : 1.03 GiB (7%)
Title                                    : www.club-hd.com  >>  Inglés DTS 5.1
Language                                 : English
Default                                  : No
Forced                                   : No

Text
ID                                       : 5
Format                                   : UTF-8
Codec ID                                 : S_TEXT/UTF8
Codec ID/Info                            : UTF-8 Plain Text
Language                                 : Spanish
Default                                  : No
Forced                                   : No

Menu
00:00:00.000                             : en:Pickup and Recovery
00:04:15.505                             : en:Main Titles
00:07:19.689                             : en:Playing Dumb
00:11:50.543                             : en:Drs. Dixon & Branton
00:15:24.798                             : en:"I Loathe Bananas"
00:17:33.510                             : en:Introductions
00:20:12.085                             : en:In the News
00:22:22.966                             : en:The Presidential Inquiry
00:32:07.258                             : en:Hasslein's Theory
00:35:44.934                             : en:Toast of the Town
00:41:52.968                             : en:Zira's Delicate Condition
00:45:33.522                             : en:Hasslein's Fear
00:50:14.428                             : en:How It All Started
00:55:31.202                             : en:Sodium Pentothal
01:01:06.746                             : en:The Commision
01:03:07.784                             : en:Boiling Point
01:05:39.060                             : en:On the Run
01:10:17.296                             : en:Stevie's Idea
01:12:24.590                             : en:Armando's Circus
01:15:43.789                             : en:Time to Go
01:19:14.166                             : en:Saying Goodbye
01:23:24.708                             : en:The Oil Field
01:26:04.993                             : en:In Hasslein's Sights
01:27:35.500                             : en:Aboard the Derelict
01:31:09.547                             : en:Confrontation
01:36:02.756                             : en:Simian Survival
01:36:49.804                             : en:End Titles




Descarga.jpg



MEGA.jpg

Tenemos TODO el material de Club-HD disponible por Mega, enlaces 100% activos y online hasta la fecha

Llévate tus cuentas Mega PRO III gratis con tu membresía VIP!
Todos los posts vivos con links de Mega.
Todo el material de Club-HD desbloqueado y sin publicidad.

Obtén más información sobre nuestras Membresías VIP



VIP_H.jpg


Tenemos TODO el material de Club-HD disponible por Mega, enlaces 100% activos y online hasta la fecha

Llévate tus cuentas Mega PRO III gratis con tu membresía VIP!
Todos los posts vivos con links de Mega.
Todo el material de Club-HD desbloqueado y sin publicidad.

Obtén más información sobre nuestras Membresías VIP



UPLOADED_BANNER.png

Para ver este contenido oculto, debes dar click en el botón"Like", o cualquiera de las otras reacciones:

Me Gusta Me Gusta, Me Encanta Me Encanta, Jaja Jaja, Wow Wow, Triste Triste, Molesto Molesto

 
Última edición por un moderador:
:aplausos: :aplausos: Vaya Cinta, Gran Clasico, Excelente Calidad, Muchas gracias Super Master :aplausos: :aplausos: :aplausos:
 
Volver