• Buenos dias amigos del club. Les queremos avisar que ya recuperamos el acceso a las webs de las Membresías VIP y del Paste. Asi que ya pueden comprar sus membresías y descargar todos los estrenos nuevamente.

Escape Plan (2013) 1080p BDRip Dual Latino-Inglés [Subt. Esp] (Acción. Thriller)

Maestro Revolver

Administrador
Registro
9 Ago 2012
Mensajes
3.157
Reacciones (ptje)
55.343


Escape-Plan-1080p.jpg




FichaTecnica.jpg


TÍTULO ORIGINAL: Escape Plan (The Tomb)
AÑO: 2013
DURACIÓN: 116 min.
PAÍS: USA
DIRECTOR: Mikael Håfström (AKA Mikael Hafström)
GUIÓN: Jason Keller, Miles Chapman
REPARTO: Sylvester Stallone, Arnold Schwarzenegger, James Caviezel (AKA Jim Caviezel), Vinnie Jones, Amy Ryan, Vincent D’Onofrio, Curtis ‘50 Cent’ Jackson, Faran Tahir, Sam Neill
PRODUCTORA: Emmett/Furla Films / Summit Entertainment
GÉNERO: Acción. Thriller | Drama carcelario
imdb-logo.png
: http://www.imdb.com/title/tt1211956/




Sinopsis.jpg


Ray Breslin (Stallone), un experto en seguridad carcelaria, se enfrenta a su mayor reto: escapar de la prisión que él mismo ha diseñado. En la cárcel conoce al enigmático Church (Schwarzenegger), un tipo que se ha ganado el respeto de todos los presos por ser capaz de mantenerlos cuerdos en las horas más oscuras.




Trailer.jpg






Capturas.jpg


2.jpg


3.jpg


4.jpg


5.jpg


6.jpg


7.jpg


La pelicula NO tiene ninguna marca... solo colocamos el nombre de esta web en las capturas




MediaInfo.jpg


Código:
General
Format                                   : Matroska
Format version                           : Version 2
File size                                : 9.61 GiB
Duration                                 : 1h 55mn
Overall bit rate                         : 11.9 Mbps
Movie name                               : www.club-hd.com
Encoded date                             : UTC 2014-01-26 02:22:57
Writing application                      : mkvmerge v5.7.0 ('The Whirlwind') built on Jul  8 2012 20:08:51
Writing library                          : libebml v1.2.3 + libmatroska v1.3.0

Video
ID                                       : 1
Format                                   : AVC
Format/Info                              : Advanced Video Codec
Format profile                           : [email protected]
Format settings, CABAC                   : Yes
Format settings, ReFrames                : 5 frames
Muxing mode                              : Header stripping
Codec ID                                 : V_MPEG4/ISO/AVC
Duration                                 : 1h 55mn
Bit rate                                 : 9 315 Kbps
Width                                    : 1 920 pixels
Height                                   : 800 pixels
Display aspect ratio                     : 2.40:1
Frame rate mode                          : Constant
Frame rate                               : 23.976 fps
Color space                              : YUV
Chroma subsampling                       : 4:2:0
Bit depth                                : 8 bits
Scan type                                : Progressive
Bits/(Pixel*Frame)                       : 0.253
Stream size                              : 7.33 GiB (76%)
Title                                    : www.club-hd.com
Writing library                          : x264 core 140 r2377 1ca7bb9
Language                                 : English
Default                                  : Yes
Forced                                   : No

Audio #1
ID                                       : 2
Format                                   : AC-3
Format/Info                              : Audio Coding 3
Mode extension                           : CM (complete main)
Format settings, Endianness              : Big
Muxing mode                              : Header stripping
Codec ID                                 : A_AC3
Duration                                 : 1h 55mn
Bit rate mode                            : Constant
Bit rate                                 : 448 Kbps
Channel(s)                               : 6 channels
Channel positions                        : Front: L C R, Side: L R, LFE
Sampling rate                            : 48.0 KHz
Bit depth                                : 16 bits
Compression mode                         : Lossy
Stream size                              : 370 MiB (4%)
Title                                    : www.club-hd.com  >>  Latino
Language                                 : Spanish
Default                                  : Yes
Forced                                   : No

Audio #2
ID                                       : 3
Format                                   : AC-3
Format/Info                              : Audio Coding 3
Mode extension                           : CM (complete main)
Format settings, Endianness              : Big
Muxing mode                              : Header stripping
Codec ID                                 : A_AC3
Duration                                 : 1h 55mn
Bit rate mode                            : Constant
Bit rate                                 : 640 Kbps
Channel(s)                               : 6 channels
Channel positions                        : Front: L C R, Side: L R, LFE
Sampling rate                            : 48.0 KHz
Bit depth                                : 16 bits
Compression mode                         : Lossy
Stream size                              : 529 MiB (5%)
Title                                    : AC3
Language                                 : English
Default                                  : No
Forced                                   : No

Audio #3
ID                                       : 4
Format                                   : DTS
Format/Info                              : Digital Theater Systems
Mode                                     : 16
Format settings, Endianness              : Big
Muxing mode                              : Header stripping
Codec ID                                 : A_DTS
Duration                                 : 1h 55mn
Bit rate mode                            : Constant
Bit rate                                 : 1 509 Kbps
Channel(s)                               : 6 channels
Channel positions                        : Front: L C R, Side: L R, LFE
Sampling rate                            : 48.0 KHz
Bit depth                                : 24 bits
Compression mode                         : Lossy
Stream size                              : 1.22 GiB (13%)
Title                                    : DTS
Language                                 : English
Default                                  : No
Forced                                   : No

Text #1
ID                                       : 5
Format                                   : UTF-8
Codec ID                                 : S_TEXT/UTF8
Codec ID/Info                            : UTF-8 Plain Text
Title                                    : Forzados
Language                                 : Spanish
Default                                  : Yes
Forced                                   : No

Text #2
ID                                       : 6
Format                                   : UTF-8
Codec ID                                 : S_TEXT/UTF8
Codec ID/Info                            : UTF-8 Plain Text
Title                                    : Completos
Language                                 : Spanish
Default                                  : No
Forced                                   : No

Menu
00:00:00.000                             : en:00:00:00.000
00:06:33.643                             : en:00:06:33.643
00:15:40.940                             : en:00:15:40.940
00:19:50.439                             : en:00:19:50.439
00:26:22.706                             : en:00:26:22.706
00:33:08.111                             : en:00:33:08.111
00:39:14.310                             : en:00:39:14.310
00:45:41.697                             : en:00:45:41.697
00:50:07.171                             : en:00:50:07.171
00:58:59.494                             : en:00:58:59.494
01:06:44.834                             : en:01:06:44.834
01:13:51.135                             : en:01:13:51.135
01:21:04.359                             : en:01:21:04.359
01:27:58.523                             : en:01:27:58.523
01:35:35.188                             : en:01:35:35.188
01:42:14.879                             : en:01:42:14.879




Descarga.jpg



MEGA.jpg

Tenemos TODO el material de Club-HD disponible por Mega, enlaces 100% activos y online hasta la fecha

Llévate tus cuentas Mega PRO III gratis con tu membresía VIP!
Todos los posts vivos con links de Mega.
Todo el material de Club-HD desbloqueado y sin publicidad.

Obtén más información sobre nuestras Membresías VIP



1FICHIER-BANNER.png


Tenemos TODO el material de Club-HD disponible por Mega, enlaces 100% activos y online hasta la fecha

Llévate tus cuentas Mega PRO III gratis con tu membresía VIP!
Todos los posts vivos con links de Mega.
Todo el material de Club-HD desbloqueado y sin publicidad.

Obtén más información sobre nuestras Membresías VIP


up.jpg


Para ver este contenido oculto, debes dar click en el botón"Like", o cualquiera de las otras reacciones:

Me Gusta Me Gusta, Me Encanta Me Encanta, Jaja Jaja, Wow Wow, Triste Triste, Molesto Molesto

OPENLOAD.png


Para ver este contenido oculto, debes dar click en el botón"Like", o cualquiera de las otras reacciones:

Me Gusta Me Gusta, Me Encanta Me Encanta, Jaja Jaja, Wow Wow, Triste Triste, Molesto Molesto

 
Última edición por un moderador:
Muchas Gracias!!!


- Te dije que las escenas de acción la tenian que hacer los dobles de riesgos, no ves que ya estamos viejos nosotros!!!

- Sí, sí tenes toda la razón, Sly!!! jajaja!!!

stalone.jpg
 
Volver