Evangelion 2.22 You Can (Not) Advance (2009) m-1080p BDRip Dual Japones-Inglés [Subt. Esp] (Animación)

Maestro Revolver 1

Maestro Revolver

Well-known member
Miembro del Staff
Administrador
Registro
9 Ago 2012
Mensajes
3.567








TÍTULO ORIGINAL: Evangelion 2.0 You Can (Not) Advance (Evangelion 2.22)
AÑO: 2009
DURACIÓN: 112 min.
PAÍS: Japón
DIRECTOR: Hideaki Anno
GUIÓN: Hideaki Anno
REPARTO: Animation
GÉNERO: Animación. Ciencia ficción. Drama. Acción | Remake. Secuela. Robots
: http://www.imdb.com/title/tt0860906/






Segunda película dentro de la serie "Rebuild of Evangelion", centrada en servir como remake del anime Evangelion. En esta ocasión, será una actualización/resumen de los capítulos del 7 al 12 del anime.
























La pelicula NO tiene ninguna marca... solo colocamos el nombre de esta web en las capturas






Código:
General
Format                                   : Matroska
Format version                           : Version 2
File size                                : 4.90 GiB
Duration                                 : 1h 52mn
Overall bit rate                         : 6 259 Kbps
Movie name                               : www.club-hd.com
Encoded date                             : UTC 2013-06-18 02:44:30
Writing application                      : mkvmerge v5.7.0 ('The Whirlwind') built on Jul  8 2012 20:08:51
Writing library                          : libebml v1.2.3 + libmatroska v1.3.0

Video
ID                                       : 1
Format                                   : AVC
Format/Info                              : Advanced Video Codec
Format profile                           : High@L4.1
Format settings, CABAC                   : Yes
Format settings, ReFrames                : 3 frames
Codec ID                                 : V_MPEG4/ISO/AVC
Duration                                 : 1h 52mn
Bit rate                                 : 5 000 Kbps
Width                                    : 1 920 pixels
Height                                   : 1 072 pixels
Display aspect ratio                     : 16:9
Frame rate mode                          : Constant
Frame rate                               : 23.976 fps
Color space                              : YUV
Chroma subsampling                       : 4:2:0
Bit depth                                : 8 bits
Scan type                                : Progressive
Bits/(Pixel*Frame)                       : 0.101
Stream size                              : 3.80 GiB (78%)
Title                                    : www.club-hd.com
Writing library                          : x264 core 120
Language                                 : Japanese
Default                                  : Yes
Forced                                   : No
Color primaries                          : BT.709
Transfer characteristics                 : BT.709
Matrix coefficients                      : BT.709

Audio #1
ID                                       : 2
Format                                   : AC-3
Format/Info                              : Audio Coding 3
Mode extension                           : CM (complete main)
Format settings, Endianness              : Big
Codec ID                                 : A_AC3
Duration                                 : 1h 52mn
Bit rate mode                            : Constant
Bit rate                                 : 640 Kbps
Channel(s)                               : 6 channels
Channel positions                        : Front: L C R, Side: L R, LFE
Sampling rate                            : 48.0 KHz
Bit depth                                : 16 bits
Compression mode                         : Lossy
Stream size                              : 513 MiB (10%)
Title                                    : www.club-hd.com  >>  Audio Japonés
Language                                 : Japanese
Default                                  : Yes
Forced                                   : No

Audio #2
ID                                       : 3
Format                                   : AC-3
Format/Info                              : Audio Coding 3
Mode extension                           : CM (complete main)
Format settings, Endianness              : Big
Codec ID                                 : A_AC3
Duration                                 : 1h 52mn
Bit rate mode                            : Constant
Bit rate                                 : 640 Kbps
Channel(s)                               : 6 channels
Channel positions                        : Front: L C R, Side: L R, LFE
Sampling rate                            : 48.0 KHz
Bit depth                                : 16 bits
Compression mode                         : Lossy
Stream size                              : 513 MiB (10%)
Title                                    : www.club-hd.com  >>  Audio Inglés
Language                                 : English
Default                                  : No
Forced                                   : No

Text
ID                                       : 4
Format                                   : UTF-8
Codec ID                                 : S_TEXT/UTF8
Codec ID/Info                            : UTF-8 Plain Text
Title                                    : www.club-hd.com
Language                                 : Spanish
Default                                  : Yes
Forced                                   : No

Menu
00:00:00.000                             : en:Chapter 1
00:02:21.391                             : en:Chapter 2
00:05:45.887                             : en:Chapter 3
00:08:35.348                             : en:Chapter 4
00:09:33.573                             : en:Chapter 5
00:11:29.563                             : en:Chapter 6
00:14:47.011                             : en:Chapter 7
00:15:46.862                             : en:Chapter 8
00:17:06.650                             : en:Chapter 9
00:18:44.665                             : en:Chapter 10
00:21:18.110                             : en:Chapter 11
00:23:33.286                             : en:Chapter 12
00:26:33.925                             : en:Chapter 13
00:28:05.642                             : en:Chapter 14
00:31:04.028                             : en:Chapter 15
00:32:48.633                             : en:Chapter 16
00:35:09.357                             : en:Chapter 17
00:39:27.656                             : en:Chapter 18
00:41:01.584                             : en:Chapter 19
00:44:23.744                             : en:Chapter 20
00:48:58.018                             : en:Chapter 21
00:50:55.343                             : en:Chapter 22
00:53:10.770                             : en:Chapter 23
00:58:20.497                             : en:Chapter 24
01:00:27.874                             : en:Chapter 25
01:01:05.787                             : en:Chapter 26
01:06:15.680                             : en:Chapter 27
01:08:17.968                             : en:Chapter 28
01:10:42.404                             : en:Chapter 29
01:11:33.247                             : en:Chapter 30
01:14:14.575                             : en:Chapter 31
01:25:22.242                             : en:Chapter 32
01:27:39.671                             : en:Chapter 33
01:29:43.378                             : en:Chapter 34
01:34:45.471                             : en:Chapter 35
01:36:55.643                             : en:Chapter 36
01:38:50.966                             : en:Chapter 37
01:41:13.192                             : en:Chapter 38
01:45:54.056                             : en:Chapter 39
01:51:32.977                             : en:Chapter 40








Enlaces de Mega y Google Drive solo disponibles para Miembros VIP

Compra tu Membresía VIP y apoya a Club-HD!

ATENCIÓN! Tenemos TODO el material de Club-HD disponible por Mega y Google Drive, enlaces 100% activos y online hasta la fecha

Llévate tus cuentas Mega PRO III gratis con tu membresía VIP!
Todos los posts vivos con links de Mega y Google Drive.
Todo el material de Club-HD desbloqueado y sin publicidad.

Click Aquí para más información.


Enlaces de Mega y Google Drive solo disponibles para Miembros VIP

Compra tu Membresía VIP y apoya a Club-HD!

ATENCIÓN! Tenemos TODO el material de Club-HD disponible por Mega y Google Drive, enlaces 100% activos y online hasta la fecha

Llévate tus cuentas Mega PRO III gratis con tu membresía VIP!
Todos los posts vivos con links de Mega y Google Drive.
Todo el material de Club-HD desbloqueado y sin publicidad.

Click Aquí para más información.


Para ver este contenido oculto, debes dar click en una de las siguientes reacciones : Like Like, Love Love, Haha Haha, Wow Wow, Sad Sad, Angry Angry


Para ver este contenido oculto, debes dar click en una de las siguientes reacciones : Like Like, Love Love, Haha Haha, Wow Wow, Sad Sad, Angry Angry
 
Última edición por un moderador:
DoomsDay Elite 0

DoomsDay Elite

Well-known member
Registro
5 Sep 2012
Mensajes
1.222
si eres bestial master espero que subas la 3 ya esto me pone feliz!!! esperandola con ansias por mientras las volveré a ver
 
Nosferatu 0

Nosferatu

Well-known member
Ex Staff
Miembro VIP
Registro
31 Ago 2012
Mensajes
2.275
Edad
45
Ubicación
Welcome to Hell!!
Re: You Can (Not) Advance (2009) m-1080p BDRip Dual Japones-Inglés [Subt. Esp] (Animación)

Muchas gracias por este excelente anime, Evangelion 2.22 :aplausos::aplausos::aplausos:

Gracias Monstruo R22!, por siempre traer lo mejor.:aplausos::aplausos::aplausos:
 

Usuarios Que Están Viendo Este Tema (Total: 1, Miembros: 0, Invitados: 1)

Quién Leyó Este Tema (Total Miembros: 1)

Arriba