Evidence (2013) 720p BDRip Audio Inglés [Subt. Esp] (Terror. Thriller)

Maestro Revolver

Administrador
Registro
9 Ago 2012
Mensajes
3.157
Reacciones (ptje)
55.042


Evidence.jpg




FichaTecnica.jpg


TÍTULO ORIGINAL: Evidence
AÑO: 2013
DURACIÓN: 118 min.
PAÍS: USA
DIRECTOR: Olatunde Osunsanmi
GUIÓN: John Swetnam
REPARTO: Stephen Moyer, Radha Mitchell, Torrey DeVitto, Nolan Gerard Funk, Caitlin Stasey, Chris Jai Alex, Dale Dickey, Aml Ameen, Harry Lennix, John Newton
PRODUCTORA: Bold Films / Marc Platt Productions
GÉNERO: Terror. Thriller | Metraje encontrado
imdb-logo.png
: http://www.imdb.com/title/tt1828970/




Sinopsis.jpg


Cuenta la investigación que un grupo de detectives llevan a cabo por medio de diversas grabaciones que han quedado tras que un autobús de pasajeros se estrelle en el desierto de Las Vegas. En la grabación se contempla cómo los pasajeros luchar por salvarse ante la amenaza de un asesino desconocido que está acabando con ellos.




Trailer.jpg






Capturas.jpg


1.jpg


2.jpg


3.jpg


4.jpg


5.jpg


6.jpg


La pelicula NO tiene ninguna marca... solo colocamos el nombre de esta web en las capturas




MediaInfo.jpg


Código:
General
Format                                   : Matroska
Format version                           : Version 2
File size                                : 3.67 GiB
Duration                                 : 1h 33mn
Overall bit rate                         : 5 594 Kbps
Movie name                               : www.club-hd.com
Encoded date                             : UTC 2013-08-23 22:58:28
Writing application                      : mkvmerge v5.7.0 ('The Whirlwind') built on Jul  8 2012 20:08:51
Writing library                          : libebml v1.2.3 + libmatroska v1.3.0

Video
ID                                       : 1
Format                                   : AVC
Format/Info                              : Advanced Video Codec
Format profile                           : [email protected]
Format settings, CABAC                   : Yes
Format settings, ReFrames                : 5 frames
Codec ID                                 : V_MPEG4/ISO/AVC
Duration                                 : 1h 33mn
Bit rate                                 : 5 146 Kbps
Width                                    : 1 280 pixels
Height                                   : 528 pixels
Display aspect ratio                     : 2.40:1
Frame rate mode                          : Constant
Frame rate                               : 23.976 fps
Color space                              : YUV
Chroma subsampling                       : 4:2:0
Bit depth                                : 8 bits
Scan type                                : Progressive
Bits/(Pixel*Frame)                       : 0.318
Stream size                              : 3.30 GiB (90%)
Title                                    : www.club-hd.com
Writing library                          : x264 core 133 r2334 a3ac64b
Language                                 : English
Default                                  : Yes
Forced                                   : No

Audio
ID                                       : 2
Format                                   : AC-3
Format/Info                              : Audio Coding 3
Mode extension                           : CM (complete main)
Format settings, Endianness              : Big
Codec ID                                 : A_AC3
Duration                                 : 1h 33mn
Bit rate mode                            : Constant
Bit rate                                 : 448 Kbps
Channel(s)                               : 6 channels
Channel positions                        : Front: L C R, Side: L R, LFE
Sampling rate                            : 48.0 KHz
Bit depth                                : 16 bits
Compression mode                         : Lossy
Stream size                              : 301 MiB (8%)
Title                                    : www.club-hd.com
Language                                 : English
Default                                  : Yes
Forced                                   : No

Text
ID                                       : 3
Format                                   : UTF-8
Codec ID                                 : S_TEXT/UTF8
Codec ID/Info                            : UTF-8 Plain Text
Title                                    : www.club-hd.com
Language                                 : Spanish
Default                                  : Yes
Forced                                   : No

Menu
00:00:00.000                             : en:00:00:00.000
00:07:52.472                             : en:00:07:52.472
00:14:26.365                             : en:00:14:26.365
00:23:23.402                             : en:00:23:23.402
00:31:06.865                             : en:00:31:06.865
00:40:30.970                             : en:00:40:30.970
00:47:58.793                             : en:00:47:58.793
00:54:38.859                             : en:00:54:38.859
01:01:29.269                             : en:01:01:29.269
01:07:55.738                             : en:01:07:55.738
01:19:25.219                             : en:01:19:25.219
01:28:39.314                             : en:01:28:39.314




Descarga.jpg



MEGA.jpg

Tenemos TODO el material de Club-HD disponible por Mega, enlaces 100% activos y online hasta la fecha

Llévate tus cuentas Mega PRO III gratis con tu membresía VIP!
Todos los posts vivos con links de Mega.
Todo el material de Club-HD desbloqueado y sin publicidad.

Obtén más información sobre nuestras Membresías VIP


UPLOADED_BANNER.png

Para ver este contenido oculto, debes dar click en el botón"Like", o cualquiera de las otras reacciones:

Me Gusta Me Gusta, Me Encanta Me Encanta, Jaja Jaja, Wow Wow, Triste Triste, Molesto Molesto

 
Última edición por un moderador:
Increíble :D Otro estreno :dplgar: Muchas gracias Revolver :aplausos: Saludos bye
 
Se ve tipo CSI, vamos a ver que tal esta, muchas gracias por el aporte, a descargar...
 
se ve buena esta peli muchisimas grasias
 
Volver