Facing the Giants (2006) 720p BDRip Dual Latino-Inglés [Subt. Esp] (Drama)

Maestro Revolver

Administrador
9 Ago 2012
3.157
54.685


Facing the Giants (2006) 720p BDRip Dual Latino-Inglés [Subt. Esp] (Drama)




Facing the Giants (2006) 720p BDRip Dual Latino-Inglés [Subt. Esp] (Drama)


TÍTULO ORIGINAL: Facing the Giants
AÑO: 2006
DURACIÓN: 111 min.
PAÍS: USA
DIRECTOR: Alex Kendrick
GUIÓN: Alex Kendrick, Stephen Kendrick
REPARTO: Alex Kendrick, Shannen Fields, Chris Willis, Tracy Goode, Bailey Cave, Steve Williams, Jason McLeod, James Blackwell, Jim McBride, Erin Bethea
PRODUCTORA: Destination Films / Samuel Goldwyn Films / Sherwood Pictures
GÉNERO: Drama | Deporte. Fútbol americano. Religión
Facing the Giants (2006) 720p BDRip Dual Latino-Inglés [Subt. Esp] (Drama)
: http://www.imdb.com/title/tt0805526/




Facing the Giants (2006) 720p BDRip Dual Latino-Inglés [Subt. Esp] (Drama)


En sus seis años como entrenador de fútbol americano en institutos, Gran Taylor nunca ha llevado a sus Shiloh Eagles hacia la victoria. Enfrentado a una crisis aparentemente insuperable, tanto profesional como personal, la idea de renunciar nunca le ha resultado más tentadora. Sólo después de que un inesperado visitante le desafíe a confiar en el poder de la fe, descubrirá la fuerza para perserverar y ganar...




Facing the Giants (2006) 720p BDRip Dual Latino-Inglés [Subt. Esp] (Drama)






Facing the Giants (2006) 720p BDRip Dual Latino-Inglés [Subt. Esp] (Drama)


Facing the Giants (2006) 720p BDRip Dual Latino-Inglés [Subt. Esp] (Drama)


Facing the Giants (2006) 720p BDRip Dual Latino-Inglés [Subt. Esp] (Drama)


Facing the Giants (2006) 720p BDRip Dual Latino-Inglés [Subt. Esp] (Drama)


Facing the Giants (2006) 720p BDRip Dual Latino-Inglés [Subt. Esp] (Drama)


Facing the Giants (2006) 720p BDRip Dual Latino-Inglés [Subt. Esp] (Drama)


Facing the Giants (2006) 720p BDRip Dual Latino-Inglés [Subt. Esp] (Drama)


La pelicula NO tiene ninguna marca... solo colocamos el nombre de esta web en las capturas




Facing the Giants (2006) 720p BDRip Dual Latino-Inglés [Subt. Esp] (Drama)


Código:
General
Format                                   : Matroska
Format version                           : Version 2
File size                                : 4.24 GiB
Duration                                 : 1h 51mn
Overall bit rate                         : 5 463 Kbps
Movie name                               : www.club-hd.com
Encoded date                             : UTC 2013-12-04 02:53:15
Writing application                      : mkvmerge v5.7.0 ('The Whirlwind') built on Jul  8 2012 20:08:51
Writing library                          : libebml v1.2.3 + libmatroska v1.3.0

Video
ID                                       : 1
Format                                   : AVC
Format/Info                              : Advanced Video Codec
Format profile                           : [email protected]
Format settings, CABAC                   : Yes
Format settings, ReFrames                : 4 frames
Codec ID                                 : V_MPEG4/ISO/AVC
Duration                                 : 1h 51mn
Bit rate                                 : 4 522 Kbps
Width                                    : 1 280 pixels
Height                                   : 696 pixels
Display aspect ratio                     : 1.85:1
Frame rate mode                          : Constant
Frame rate                               : 23.976 fps
Color space                              : YUV
Chroma subsampling                       : 4:2:0
Bit depth                                : 8 bits
Scan type                                : Progressive
Bits/(Pixel*Frame)                       : 0.212
Stream size                              : 3.51 GiB (83%)
Title                                    : www.club-hd.com
Writing library                          : x264 core 116 r2057 0ba8a9c
Language                                 : English
Default                                  : Yes
Forced                                   : No

Audio #1
ID                                       : 2
Format                                   : AC-3
Format/Info                              : Audio Coding 3
Mode extension                           : CM (complete main)
Format settings, Endianness              : Big
Codec ID                                 : A_AC3
Duration                                 : 1h 51mn
Bit rate mode                            : Constant
Bit rate                                 : 192 Kbps
Channel(s)                               : 2 channels
Channel positions                        : Front: L R
Sampling rate                            : 48.0 KHz
Bit depth                                : 16 bits
Compression mode                         : Lossy
Stream size                              : 153 MiB (4%)
Title                                    : www.club-hd.com  >>  Latino
Language                                 : Spanish
Default                                  : Yes
Forced                                   : No

Audio #2
ID                                       : 3
Format                                   : AC-3
Format/Info                              : Audio Coding 3
Mode extension                           : CM (complete main)
Format settings, Endianness              : Big
Codec ID                                 : A_AC3
Duration                                 : 1h 51mn
Bit rate mode                            : Constant
Bit rate                                 : 640 Kbps
Channel(s)                               : 6 channels
Channel positions                        : Front: L C R, Side: L R, LFE
Sampling rate                            : 48.0 KHz
Bit depth                                : 16 bits
Compression mode                         : Lossy
Stream size                              : 509 MiB (12%)
Title                                    : www.club-hd.com  >>  Inglés
Language                                 : English
Default                                  : No
Forced                                   : No

Text
ID                                       : 4
Format                                   : UTF-8
Codec ID                                 : S_TEXT/UTF8
Codec ID/Info                            : UTF-8 Plain Text
Language                                 : Spanish
Default                                  : No
Forced                                   : No

Menu
00:00:00.000                             : en:00:00:00.000
00:08:56.911                             : en:00:08:56.911
00:12:05.725                             : en:00:12:05.725
00:20:25.349                             : en:00:20:25.349
00:24:13.786                             : en:00:24:13.786
00:32:52.512                             : en:00:32:52.512
00:36:04.371                             : en:00:36:04.371
00:44:29.292                             : en:00:44:29.292
00:53:22.783                             : en:00:53:22.783
01:00:04.392                             : en:01:00:04.392
01:07:25.959                             : en:01:07:25.959
01:14:13.074                             : en:01:14:13.074
01:22:11.385                             : en:01:22:11.385
01:28:58.124                             : en:01:28:58.124
01:34:56.190                             : en:01:34:56.190
01:41:18.531                             : en:01:41:18.531




Facing the Giants (2006) 720p BDRip Dual Latino-Inglés [Subt. Esp] (Drama)



Facing the Giants (2006) 720p BDRip Dual Latino-Inglés [Subt. Esp] (Drama)

Enlaces de Mega solo disponibles para Miembros VIP

Compra tu Membresía VIP y apoya a Club-HD!

ATENCIÓN! Tenemos TODO el material de Club-HD disponible por Mega, enlaces 100% activos y online hasta la fecha

Llévate tus cuentas Mega PRO III gratis con tu membresía VIP!
Todos los posts vivos con links de Mega.
Todo el material de Club-HD desbloqueado y sin publicidad.

Click Aquí para más información.


Facing the Giants (2006) 720p BDRip Dual Latino-Inglés [Subt. Esp] (Drama)

Para ver este contenido oculto, debes dar click en el botón "Like", o cualquiera de las otras reacciones:

Me Gusta Me Gusta, Me Encanta Me Encanta, Jaja Jaja, Wow Wow, Triste Triste, Molesto Molesto

 
Última edición por un moderador:

Claudia

R. I. P.
Honorífico
28 Ago 2012
2.031
2.724
Pnsand0La verdad no la he visto, veremso que tal tiene buenos comentarios.....:dplgar:
 

vyx

Honorífico
2 Sep 2012
801
379
Gracias revolver la verdad crei que te ibas a tardar mas revolver me dejaste :eek:mg_:
 
Arriba